Samples / Trailers

Jennifer's Body 2nd Trailer HD avi

  • Download 5x Faster
  • Download torrent
  • Direct Download
  • Rate this torrent +  |  -
Jennifer's Body 2nd Trailer HD avi

Download FREE And Anonymously


Torrent info

Name:Jennifer's Body 2nd Trailer HD avi

Total Size: 24.43 MB

Magnet: Magnet Link

Seeds: 0

Leechers: 0

Stream: Watch Full Movie @ Movie4u

Last Updated: 2015-09-19 23:00:57 (Update Now)

Torrent added: 2009-08-29 09:02:48



VPN For Torrents

Torrent Files List


Jennifer's Body 2nd Trailer HD.avi (Size: 24.43 MB) (Files: 1)

 Jennifer's Body 2nd Trailer HD.avi

24.43 MB
4div c݇бs-ar2 h1P1ȉ11

tracker

leech seeds
5v claay62 ba111

Torrent description

Format : AVI
Format/Info : Audio Video Interleave
File size : 24.4 MiB
Duration : 1mn 42s
Overall bit rate : 2 006 Kbps
Writing application : MEncoder Sherpya-SVN-r27811-4.2.5
Writing library : MPlayer

Video
Format : h264
Codec ID : h264
Duration : 1mn 42s
Bit rate : 1 884 Kbps
Width : 1 904 pixels
Height : 1 024 pixels
Display aspect ratio : 1.859
Frame rate : 24.000 fps
Resolution : 24 bits
Bits/(Pixel*Frame) : 0.040
Stream size : 22.9 MiB (94%)

Audio
Format : MPEG Audio
Format version : Version 1
Format profile : Layer 3
Codec ID : 55
Codec ID/Hint : MP3
Duration : 1mn 42s
Bit rate mode : Variable
Bit rate : 109 Kbps
Channel(s) : 2 channels
Sampling rate : 48.0 KHz
Resolution : 16 bits
Stream size : 1.32 MiB (5%)
Alignment : Aligned on interleaves
Interleave, duration : 24 ms (0.58 video frame)
Interleave, preload duration : 254 ms
Writing library : LAME3.98

related torrents

Torrent name

health leech seeds Size
 


comments (0)

Main Menu

 

script data-cfasync="false" src="//d2ghscazvn398x.cloudfront.net/?cshgd=690275">