Romance

Uma Noite De Amor E Música DVDRip XviD nsiervi

  • Download 5x Faster
  • Download torrent
  • Direct Download
  • Rate this torrent +  |  -
Uma Noite De Amor E Música DVDRip XviD nsiervi

Anonymous and Free Direct Download


Torrent info

Name:Uma Noite De Amor E Música DVDRip XviD nsiervi

Total Size: 700.02 MB

Magnet: Magnet Link

Seeds: 0

Leechers: 2

Stream: Watch Online @ Movie4u

Last Updated: 2016-02-20 21:19:07 (Update Now)

Torrent added: 2009-08-29 08:33:19



VPN For Torrents

Torrent Files List


Torrent downloaded from Demonoid.com.txt (Size: 700.02 MB) (Files: 2)

 Torrent downloaded from Demonoid.com.txt

0.05 KB

 Uma Noite De Amor E Música.DVDRip.XviD-nsiervi.avi

700.02 MB
 

tracker

leech seeds
 

Torrent description

Uma Noite De Amor E Música
( Nick And Norahs Infinite Playlist ) - Audio PT_Br -




Uma Noite De Amor E Música DVDRip XviD nsiervi preview 0

Sinopse:
Duas pessoas são forçadas a virar a noite numa hilária aventura num mundo de coletâneas de discos, baladas nas altas horas e música ao vivo a todo volume. Nick (Michael Cera) freqüenta o cenário do rock alternativo de Nova York alimentando uma dor de cotovelo e tocando baixo na banda punk gay chamada The Jerk Offs. Norah (Kat Dennings) anda questionando todas as suas concepções sobre o mundo. Apesar de não terem nada em comum (exceto o gosto musical) o encontro casual os leva a missão de virar a noite à procura de um show secreto de uma fantástica banda e a aventura acaba se transformando na primeira balada que poderá mudar a vida dos dois para sempre.

Elenco:
Michael Cera ... Nick
Kat Dennings ... Norah
Aaron Yoo ... Thom
Rafi Gavron ... Dev
Ari Graynor ... Caroline
Alexis Dziena ... Tris

Infos do arquivo:
Direção: Pete Sollett
Gênero: Comédia/Romance/Drama
Duração: 1:29:32
Distribuidora: Sony Pictures
Link IMDB: http://www.imdb.com/title/tt0981227/
Quantidade de Mídias: 1

Screens:
Uma Noite De Amor E Música DVDRip XviD nsiervi preview 1
Uma Noite De Amor E Música DVDRip XviD nsiervi preview 2

Outras infos:
General
Complete name : E:\Uma Noite De Amor E Música.DVDRip.XviD-nsiervi\Uma Noite De Amor E Música.DVDRip.XviD-nsiervi.avi
Format : AVI
Format/Info : Audio Video Interleave
File size : 700 MiB
Duration : 1h 29mn
Overall bit rate : 1 093 Kbps
Writing application : VirtualDubMod 1.5.10.2 (build 2540/release)
Writing library : VirtualDub build 30586/release

Video
Format : MPEG-4 Visual
Format profile : Streaming Video@L1
Format settings, BVOP : Yes
Format settings, QPel : No
Format settings, GMC : No warppoints
Format settings, Matrix : Default
Codec ID : XVID
Codec ID/Hint : XviD
Duration : 1h 29mn
Bit rate : 951 Kbps
Width : 576 pixels
Height : 304 pixels
Display aspect ratio : 1.895
Frame rate : 23.976 fps
Resolution : 24 bits
Colorimetry : 4:2:0
Scan type : Progressive
Bits/(Pixel*Frame) : 0.227
Stream size : 609 MiB (87%)
Writing library : XviD 1.2.1 (UTC 2008-12-04)

Audio
Format : MPEG Audio
Format version : Version 1
Format profile : Layer 3
Codec ID : 55
Codec ID/Hint : MP3
Duration : 1h 29mn
Bit rate mode : Variable
Bit rate : 129 Kbps
Nominal bit rate : 128 Kbps
Channel(s) : 2 channels
Sampling rate : 48.0 KHz
Resolution : 16 bits
Stream size : 82.6 MiB (12%)
Alignment : Aligned on interleaves
Interleave, duration : 24 ms (0.58 video frame)
Interleave, preload duration : 142 ms
Writing library : LAME3.90.
Encoding settings : ABR

Thx from Brazil, Seed And Enjoy
Tamanho: 700Mb
Extensão do Arquivo: Tipo de Compartilhamento: Torrent;
Idioma do Audio: Português
Legendas: Sem Legenda
Qualidade do Vídeo: DVDrip
Ano de Lançamento: 2008
Tempo de Duração: 1h 29min
Vídeo Codec: XviD
Audio Codec: Mp3
Resolução: 576 X 304
Formato de Tela: WideScreen(16x9)
Frame Rate: 23fps

related torrents

Torrent name

health leech seeds Size
 


comments (0)

Main Menu