Romance

The Golden Boys AC3 5,1 DVDRip[Eng]2008

  • Download 5x Faster
  • Download torrent
  • Direct Download
  • Rate this torrent +  |  -
The Golden Boys AC3 5,1 DVDRip[Eng]2008

Free and Direct Download with Usenet.nl 300GB+ free


Torrent info

Name:The Golden Boys AC3 5,1 DVDRip[Eng]2008

Total Size: 1.32 GB

Magnet: Magnet Link

Seeds: 0

Leechers: 0

Stream: Watch Online @ Movie4u

Last Updated: 2010-10-04 12:55:31 (Update Now)

Torrent added: 2009-08-29 08:15:48





Torrent Files List


The Golden Boys-AC3-5,1-DVDRip[Eng]2008.avi (Size: 1.32 GB) (Files: 3)

 The Golden Boys-AC3-5,1-DVDRip[Eng]2008.avi

1.32 GB

 The Golden Boys-AC3-5,1-DVDRip[Eng]2008.txt

2.42 KB

 Torrent downloaded from Demonoid.com.txt

0.05 KB
 

Announce URL: http://inferno.demonoid.com:3419/announce

Torrent description

http://www.imdb.com/title/tt0882969/

http://www.thegoldenboysmovie.com/

User Rating:6.7/10 - 99 votes

Romance

Director:Daniel Adams

Cast:David Carradine/Bruce Dern/Rip Torn/Mariel Hemingway, and others.

Plot:
A romantic comedy, set on Cape Cod in 1905, about three 70-year-old retired sea captains who try to lure an
attractive middle-aged woman into marriage...

Info:

General
Complete name : The Golden Boys-AC3-5,1-DVDRip[Eng]2008.avi
Format : AVI
Format/Info : Audio Video Interleave
File size : 1.32 GiB
Duration : 1h 36mn
Overall bit rate : 1 948 Kbps
Writing application : VirtualDubMod 1.5.4.1 (build 2178/release)
Writing library : VirtualDubMod build 2178/release

Video
Format : MPEG-4 Visual
Format profile : [email protected]
Format settings, BVOP : No
Format settings, QPel : No
Format settings, GMC : No warppoints
Format settings, Matrix : Default
Codec ID : XVID
Codec ID/Hint : XviD
Duration : 1h 36mn
Bit rate : 1 493 Kbps
Width : 720 pixels
Height : 400 pixels
Display aspect ratio : 16/9
Frame rate : 23.976 fps
Resolution : 24 bits
Colorimetry : 4:2:0
Scan type : Progressive
Bits/(Pixel*Frame) : 0.216
Stream size : 1.01 GiB (77%)
Writing library : XviD 50

Audio
Format : AC-3
Format/Info : Audio Coding 3
Codec ID : 2000
Duration : 1h 36mn
Bit rate mode : Constant
Bit rate : 448 Kbps
Channel(s) : 6 channels
Channel positions : Front: L C R, Surround: L R, LFE
Sampling rate : 48.0 KHz
Stream size : 310 MiB (23%)
Alignment : Split accross interleaves
Interleave, duration : 83 ms (2.00 video frames)
Interleave, preload duration : 500 ms
Language : English

Enjoy....

related torrents

Torrent name

health leech seeds Size
 

comments (0)

Main Menu