Soundtracks

Ennio Morricone Per qualche dollaro in piuFor a Few Dollars MoreRemasterd 2003Flac+Cue

  • Download 5x Faster
  • Download torrent
  • Direct Download
  • Rate this torrent +  |  -

Torrent info

Name:Ennio Morricone Per qualche dollaro in piuFor a Few Dollars MoreRemasterd 2003Flac+Cue

Total Size: 208.91 MB

Magnet: Magnet Link

Seeds: 5

Leechers: 1

Stream: Watch Online @ Movie4u

Last Updated: 2011-01-04 21:44:58 (Update Now)

Torrent added: 2008-08-12 15:44:16



VPN For Torrents

Torrent Files List


Cover (Size: 208.91 MB) (Files: 10)

 Cover

  Booklet Inner 1.jpg

673.61 KB

  Booklet Inner 2.jpg

473.56 KB

  Booklet Inner 3.jpg

519.78 KB

  Booklet Outer.jpg

620.88 KB

  CD.jpg

137.83 KB

  Inlay Inner.jpg

332.82 KB

  Inlay Outer.jpg

429.22 KB

 Ennio Morricone - Per Qualche Dollaro in Piu.cue

3.18 KB

 Ennio Morricone - Per Qualche Dollaro in Piu.flac

205.79 MB

 Per Qualche Dollaro in Piu.log

3.74 KB
 

Announce URL: http://tracker.tntvillage.scambioetico.org:2710/announce

Torrent description

Titolo: Per Qualche Dollaro In Piu'
Anno: Remaster 2004
Genere: Colonne Sonore/western
[b]Fonte: Audio cd
[b]Formato :Flac
------------------------------------------------------------------------------------------------------------------------
[color=green]:::->Tracklist<-:::[/color]


01. Per Qualche Dollaro in Piu 3:50
02. Per Qualche Dollaro in Piu (seq. #2) 1:13
03. Per Qualche Dollaro in Piu (seq. #3) 2:53
04. Osservatori Osservati 2:05
05. Poker d'Assi 1:22
06. Per Qualche Dollaro in Piu (seq. #6) 2:42
07. Per Qualche Dollaro in Piu (seq. #7) 0:47
08. Per Qualche Dollaro in Piu (seq. #8) 2:17
09. Per Qualche Dollaro in Piu (seq. #9) 2:25
10. Per Qualche Dollaro in Piu (seq. #10) 1:16
11. La Resa dei Conti 3:08
12. Per Qualche Dollaro in Piu (seq. #12) 1:58
13. Per Qualche Dollaro in Piu (seq. #13) 1:20
14. Carillon 1:11
15. Il Vizio di Uccidere 2:28
16. Per Qualche Dollaro in Piu (seq. #16) 2:11
17. Il Colpo 2:26
18. Per Qualche Dollaro in Piu (seq. #18) 0:54
19. Per Qualche Dollaro in Piu (seq. #19) 1:16
20. Addio Colonnello 1:46
21. Occhio per Occhio (Italian version-mono) 3:02
22. Eye for an Eye (English version-stereo) 3:01




-----------------------------------------------------------------------------------------------------------------------




[color=green]:::->Dati Tecnici<-:::[/color]

[color=red] Formato : Flac [/color]
Programma usato [Eac]

[CODE]
Exact Audio Copy V0.99 prebeta 3 from 28. July 2007

EAC extraction logfile from 18. April 2008, 22:41

Ennio Morricone / Per Qualche Dollaro in Piu

Used drive : _NEC DVD_RW ND-3550A Adapter: 5 ID: 0

Read mode : Secure
Utilize accurate stream : Yes
Defeat audio cache : Yes
Make use of C2 pointers : No

Read offset correction : 48
Overread into Lead-In and Lead-Out : No
Fill up missing offset samples with silence : Yes
Delete leading and trailing silent blocks : No
Null samples used in CRC calculations : No
Used interface : Installed external ASPI interface

Used output format : User Defined Encoder
Selected bitrate : 768 kBit/s
Quality : High
Add ID3 tag : No
Command line compressor : C:\Programmi\Exact Audio Copy\FLAC\FLAC.EXE
Additional command line options : -6 -V -T "ARTIST=%a" -T "TITLE=%t" -T "ALBUM=%g" -T "DATE=%y" -T "TRACKNUMBER=%n" -T "GENRE=%m" -T "COMMENT=%e" %s -o %d


TOC of the extracted CD

Track | Start | Length | Start sector | End sector
---------------------------------------------------------
1 | 0:00.00 | 3:50.00 | 0 | 17249
2 | 3:50.00 | 1:13.37 | 17250 | 22761
3 | 5:03.37 | 2:53.00 | 22762 | 35736
4 | 7:56.37 | 2:05.30 | 35737 | 45141
5 | 10:01.67 | 1:22.15 | 45142 | 51306
6 | 11:24.07 | 2:41.67 | 51307 | 63448
7 | 14:05.74 | 0:46.45 | 63449 | 66943
8 | 14:52.44 | 2:16.49 | 66944 | 77192
9 | 17:09.18 | 2:25.00 | 77193 | 88067
10 | 19:34.18 | 1:16.15 | 88068 | 93782
11 | 20:50.33 | 3:08.37 | 93783 | 107919
12 | 23:58.70 | 1:58.00 | 107920 | 116769
13 | 25:56.70 | 1:20.37 | 116770 | 122806
14 | 27:17.32 | 1:10.45 | 122807 | 128101
15 | 28:28.02 | 2:28.00 | 128102 | 139201
16 | 30:56.02 | 2:11.37 | 139202 | 149063
17 | 33:07.39 | 2:26.15 | 149064 | 160028
18 | 35:33.54 | 0:53.67 | 160029 | 164070
19 | 36:27.46 | 1:15.41 | 164071 | 169736
20 | 37:43.12 | 1:45.45 | 169737 | 177656
21 | 39:28.57 | 3:01.38 | 177657 | 191269
22 | 42:30.20 | 3:01.24 | 191270 | 204868


Range status and errors

Selected range

Filename D:\Documents and Settings\salvo.SN116508160310\Documenti\Ennio Morricone - Per Qualche Dollaro in Piu.wav

Peak level 100.0 %
Range quality 99.9 %
Test CRC A5280BC6
Copy CRC A5280BC6
Copy OK

No errors occurred


AccurateRip summary

Track 1 not present in database
Track 2 not present in database
Track 3 not present in database
Track 4 not present in database
Track 5 not present in database
Track 6 not present in database
Track 7 not present in database
Track 8 not present in database
Track 9 not present in database
Track 10 not present in database
Track 11 not present in database
Track 12 not present in database
Track 13 not present in database
Track 14 not present in database
Track 15 not present in database
Track 16 not present in database
Track 17 not present in database
Track 18 not present in database
Track 19 not present in database
Track 20 not present in database
Track 21 not present in database
Track 22 not present in database

None of the tracks are present in the AccurateRip database

End of status report







[/CODE]

related torrents

Torrent name

health leech seeds Size
 


comments (0)

Main Menu