Romance

HisbahTheMovie[2009]PCM

  • Download 5x Faster
  • Download torrent
  • Direct Download
  • Rate this torrent +  |  -
HisbahTheMovie[2009]PCM

Free and Direct Download with Usenet.nl 300GB+ free


Torrent info

Name:HisbahTheMovie[2009]PCM

Total Size: 90.63 MB

Magnet: Magnet Link

Seeds: 0

Leechers: 0

Stream: Watch Online @ Movie4u

Last Updated: 2009-12-02 05:18:30 (Update Now)

Torrent added: 2009-08-29 07:04:03





Torrent Files List


cover album (Size: 90.63 MB) (Files: 6)

 cover album

  cover back.jpg

396.38 KB

  cover front.jpg

366.96 KB

 wallpaper

  wallpaper2.jpg

773.12 KB

  wallpaper.jpg

626.38 KB

 Hisbah.the.Movie.XviD-PCM.avi

88.51 MB

 ReadMe.txt

1.60 KB
 

Announce URL: http://open.tracker.thepiratebay.org/announce

Torrent description

---------------------------------------
Brought to you by Unit Hisbah PCM 08/09
---------------------------------------

Thanks for downloading

Hope you enjoy the movie & most importantly, learn something from it

For more exciting stuff, visit http://mansurah.perubatan.org
---------------------------------------------------------------------
ScreenShot

FILE INFO:
General
Format : AVI
Format/Info : Audio Video Interleave
File size : 88.5 MiB
Duration : 18mn 48s
Overall bit rate : 658 Kbps

Video
Format : MPEG-4 Visual
Codec ID/Hint : XVID
Duration : 18mn 48s
Bit rate : 520 Kbps
Width : 640 pixels
Height : 480 pixels
Display aspect ratio : 4/3
Frame rate : 25.000 fps
Scan type : Progressive
Bits/(Pixel*Frame) : 0.068
Stream size : 69.9 MiB (79%)

Audio
Format : MPEG Audio
Codec ID/Hint : MP3
Duration : 18mn 48s
Bit rate mode : Constant
Bit rate : 128 Kbps
Channel(s) : 2 channels
Sampling rate : 44.1 KHz
Stream size : 17.2 MiB (19%)
-----------------------------------------------------------------------
reconverted and reupload by HafizAdam
More downloads at http://perubatan.org

related torrents

Torrent name

health leech seeds Size
 

comments (0)

Main Menu