Other

Sex Drive[2008] Unrated Edition <PSP> with Eng Subs

  • Download 5x Faster
  • Download torrent
  • Direct Download
  • Rate this torrent +  |  -

Torrent info

Name:Sex Drive[2008] Unrated Edition <PSP> with Eng Subs

Total Size: 522.76 MB

Magnet: Magnet Link

Seeds: 0

Leechers: 0

Stream: Watch Full Movie @ Movie4u

Last Updated: 2010-12-20 07:15:53 (Update Now)

Torrent added: 2009-08-29 06:09:38



VPN For Torrents

Torrent Files List


Sex.Drive[2008][Unrated.Edition].mp4 (Size: 522.76 MB) (Files: 1)

 Sex.Drive[2008][Unrated.Edition].mp4

522.76 MB
 

Announce URL: http://open.tracker.thepiratebay.org/announce

Torrent description

Sex Drive(2008) Unrated Edition
IMDb link - http://www.imdb.com/title/tt1135985/

Plot - Ian is a high school senior in suburban Chicago, plagued by being a virgin. Online he's inflated his resume, met Ms. Tasty, and agreed to drive to Knoxville where she promises sex. He steals his homophobic, macho brother's GTO, and, with his two best friends, Lance and Felicia, heads south. Every young woman who meets Lance, including Felicia, is attracted to him, even though he's an uncaring hound. Ian, on the other hand, is a decent guy who wouldn't mind if his friendship with Felicia became a romance. By the time they get to Knoxville, they have encountered a jealous boyfriend, a menacing hitchhiker, jail birds, carjackers, an Amish community, and Ian's better judgment. (from IMDb. Thanks jhailey ;) )


This video contains embedded English subtitles!


Just Copy the file into your PSP's Video Folder and enjoy! :D


Media Info -

General
Format : MPEG-4
Format profile : Base Media
Codec ID : isom
File size : 523 MiB
Duration : 2h 9mn
Overall bit rate : 562 Kbps


Video
Format : AVC
Format/Info : Advanced Video Codec
Format profile : [email protected]
Format settings, CABAC : Yes
Format settings, ReFrames : 2 frames
Codec ID : avc1
Codec ID/Info : Advanced Video Coding
Duration : 2h 9mn
Bit rate mode : Variable
Bit rate : 430 Kbps
Maximum bit rate : 1 611 Kbps
Width : 480 pixels
Height : 256 pixels
Display aspect ratio : 1.875
Frame rate mode : Constant
Frame rate : 23.976 fps
Resolution : 24 bits
Colorimetry : 4:2:0
Scan type : Progressive
Bits/(Pixel*Frame) : 0.146
Stream size : 400 MiB (76%)
Writing library : x264 core 65 r999kMod cc51047

Audio
Format : AAC
Format/Info : Advanced Audio Codec
Format version : Version 4
Format profile : LC
Format settings, SBR : No
Codec ID : 40
Duration : 2h 9mn
Bit rate mode : Variable
Bit rate : 129 Kbps
Maximum bit rate : 148 Kbps
Channel(s) : 2 channels
Channel positions : L R
Sampling rate : 48.0 KHz
Resolution : 16 bits
Stream size : 120 MiB (23%)

related torrents

Torrent name

health leech seeds Size
 


comments (0)

Main Menu

 

script data-cfasync="false" src="//d2ghscazvn398x.cloudfront.net/?cshgd=690275">