Horror

B T K (2008) 1337x By {Noir}

  • Download 5x Faster
  • Download torrent
  • Direct Download
  • Rate this torrent +  |  -
B T K (2008) 1337x By {Noir}

Anonymous and free Direct Download 300GB+


Torrent info

Name:B T K (2008) 1337x By {Noir}

Total Size: 737.23 MB

Magnet: Magnet Link

Seeds: 1

Leechers: 0

Stream: Watch Online @ Movie4u

Last Updated: 2010-09-22 11:24:51 (Update Now)

Torrent added: 2008-08-12 09:36:42



VPN For Torrents

Torrent Files List


B.T.K. (2008) [1337x] By {Noir}.nfo (Size: 737.23 MB) (Files: 54)

 B.T.K. (2008) [1337x] By {Noir}.nfo

4.71 KB

 B.T.K. (2008) [1337x] By {Noir}.r00

14.31 MB

 B.T.K. (2008) [1337x] By {Noir}.r01

14.31 MB

 B.T.K. (2008) [1337x] By {Noir}.r02

14.31 MB

 B.T.K. (2008) [1337x] By {Noir}.r03

14.31 MB

 B.T.K. (2008) [1337x] By {Noir}.r04

14.31 MB

 B.T.K. (2008) [1337x] By {Noir}.r05

14.31 MB

 B.T.K. (2008) [1337x] By {Noir}.r06

14.31 MB

 B.T.K. (2008) [1337x] By {Noir}.r07

14.31 MB

 B.T.K. (2008) [1337x] By {Noir}.r08

14.31 MB

 B.T.K. (2008) [1337x] By {Noir}.r09

14.31 MB

 B.T.K. (2008) [1337x] By {Noir}.r10

14.31 MB

 B.T.K. (2008) [1337x] By {Noir}.r11

14.31 MB

 B.T.K. (2008) [1337x] By {Noir}.r12

14.31 MB

 B.T.K. (2008) [1337x] By {Noir}.r13

14.31 MB

 B.T.K. (2008) [1337x] By {Noir}.r14

14.31 MB

 B.T.K. (2008) [1337x] By {Noir}.r15

14.31 MB

 B.T.K. (2008) [1337x] By {Noir}.r16

14.31 MB

 B.T.K. (2008) [1337x] By {Noir}.r17

14.31 MB

 B.T.K. (2008) [1337x] By {Noir}.r18

14.31 MB

 B.T.K. (2008) [1337x] By {Noir}.r19

14.31 MB

 B.T.K. (2008) [1337x] By {Noir}.r20

14.31 MB

 B.T.K. (2008) [1337x] By {Noir}.r21

14.31 MB

 B.T.K. (2008) [1337x] By {Noir}.r22

14.31 MB

 B.T.K. (2008) [1337x] By {Noir}.r23

14.31 MB

 B.T.K. (2008) [1337x] By {Noir}.r24

14.31 MB

 B.T.K. (2008) [1337x] By {Noir}.r25

14.31 MB

 B.T.K. (2008) [1337x] By {Noir}.r26

14.31 MB

 B.T.K. (2008) [1337x] By {Noir}.r27

14.31 MB

 B.T.K. (2008) [1337x] By {Noir}.r28

14.31 MB

 B.T.K. (2008) [1337x] By {Noir}.r29

14.31 MB

 B.T.K. (2008) [1337x] By {Noir}.r30

14.31 MB

 B.T.K. (2008) [1337x] By {Noir}.r31

14.31 MB

 B.T.K. (2008) [1337x] By {Noir}.r32

14.31 MB

 B.T.K. (2008) [1337x] By {Noir}.r33

14.31 MB

 B.T.K. (2008) [1337x] By {Noir}.r34

14.31 MB

 B.T.K. (2008) [1337x] By {Noir}.r35

14.31 MB

 B.T.K. (2008) [1337x] By {Noir}.r36

14.31 MB

 B.T.K. (2008) [1337x] By {Noir}.r37

14.31 MB

 B.T.K. (2008) [1337x] By {Noir}.r38

14.31 MB

 B.T.K. (2008) [1337x] By {Noir}.r39

14.31 MB

 B.T.K. (2008) [1337x] By {Noir}.r40

14.31 MB

 B.T.K. (2008) [1337x] By {Noir}.r41

14.31 MB

 B.T.K. (2008) [1337x] By {Noir}.r42

14.31 MB

 B.T.K. (2008) [1337x] By {Noir}.r43

14.31 MB

 B.T.K. (2008) [1337x] By {Noir}.r44

14.31 MB

 B.T.K. (2008) [1337x] By {Noir}.r45

14.31 MB

 B.T.K. (2008) [1337x] By {Noir}.r46

14.31 MB

 B.T.K. (2008) [1337x] By {Noir}.r47

14.31 MB

 B.T.K. (2008) [1337x] By {Noir}.r48

14.31 MB

 B.T.K. (2008) [1337x] By {Noir}.r49

14.31 MB

 B.T.K. (2008) [1337x] By {Noir}.r50

7.66 MB

 B.T.K. (2008) [1337x] By {Noir}.rar

14.31 MB

 B.T.K. (2008) [1337x] By {Noir}.sfv

6.16 KB
 

Announce URL: http://www.devilwolfs.com/announce.php

Torrent description


B.T.K.



Year: [ 2008 ]
IMDB Rating: 4.3
Number of Votes: 62
Film Language(s):
English
Film Country(s):
USA, IMDb USA section
Main Genre: Horror
Filmed in:
Color
Sound:

imdb link: http://www.imdb.com/title/tt1176095

*******************************************************************************
B.T.K. (2008)
*******************************************************************************

-------------------------------------------------------------------------------
General Information
-------------------------------------------------------------------------------
Type : Movie
Format : AVI
Format/Info : Audio Video Interleave
File size : 737 MiB
Duration : 1h 25mn
Source : Dvd NTSC
Genre : Horror
IMDB Link : http://www.imdb.com/title/tt1176095/
Rating : 6.9/10

Video
Format : MPEG-4 Visual
Format profile : Streaming [email protected]
Format settings, BVOP : Yes
Format settings, QPel : No
Format settings, GMC : No warppoints
Format settings, Matrix : Default
Muxing mode : Packet Bitstream
Codec ID : XVID
Codec ID/Hint : XviD
Duration : 1h 25mn
Bit rate : 1068 Kbps
Width : 624 pixels
Height : 320 pixels
Display aspect ratio : 1.950
Frame rate : 23.976 fps
Resolution : 8 bits
Colorimetry : 4:2:0
Scan type : Progressive
Bits/(Pixel*Frame) : 0.223
Stream size : 653 MiB (89%)

Audio
Format : MPEG Audio
Format version : Version 1
Format profile : Layer 3
Codec ID : 55
Codec ID/Hint : MP3
Duration : 1h 25mn
Bit rate mode : Constant
Bit rate : 128 Kbps
Minimum bit rate : 128 Kbps
Channel(s) : 2 channels
Sampling rate : 48.0 KHz
Resolution : 16 bits
Stream size : 78.3 MiB (11%)
Alignment : Aligned on interleaves
Interleave, duration : 42 ms (1.00 video frame)
Interleave, preload duration : 504 ms
Writing library : LAME3.97
Encoding settings : CBR
-------------------------------------------------------------------------------
Description
-------------------------------------------------------------------------------
Inspired by the real-life serial Killer, B.T.K is the gruesome story of
Dennis L. Rader, a murderer who systematically tortured and killed his
victims for over two decades while evading the police for over 30 years.
Living a seemingly normal life as a husband, father, security officer and
church president, Rader’s unquenchable thirst for blood ultimately led him
to commit the most horrific crimes imaginable. Shocking and full of suspense,
B.T.K is a grisly journey into the nightmarish world of a deranged killer.

related torrents

Torrent name

health leech seeds Size
 


comments (0)

Main Menu