Movies - Other

[FLAC EAC CUE]The Clash The Clash (UK) (1977)[colombo bt org]

  • Download 5x Faster
  • Download torrent
  • Direct Download
  • Rate this torrent +  |  -
[FLAC EAC CUE]The Clash The Clash (UK) (1977)[colombo bt org]

Free and Direct Download with Usenet.nl 300GB+ free


Torrent info

Name:[FLAC EAC CUE]The Clash The Clash (UK) (1977)[colombo bt org]

Total Size: 229.81 MB

Magnet: Magnet Link

Seeds: 0

Leechers: 0

Stream: Watch Online @ Movie4u

Last Updated: 2010-10-05 17:19:21 (Update Now)

Torrent added: 2009-08-29 05:27:56





Torrent Files List


01 - Janie Jones.flac (Size: 229.81 MB) (Files: 20)

 01 - Janie Jones.flac

14.36 MB

 02 - Remote Control.flac

19.45 MB

 03 - I'm So Bored With The U.S.A..flac

16.02 MB

 04 - White Riot.flac

13.07 MB

 05 - Hate & War.flac

14.03 MB

 06 - What's My Name.flac

10.91 MB

 07 - Deny.flac

20.17 MB

 08 - London's Burning.flac

14.98 MB

 09 - Career Opportunities.flac

12.66 MB

 10 - Cheat.flac

14.32 MB

 11 - Protex Blue.flac

11.62 MB

 12 - Police & Thieves.flac

35.78 MB

 13 - 48 Hours.flac

10.76 MB

 14 - Garageland.flac

21.20 MB

 cd-back.jpg

154.03 KB

 cd-cd.jpg

129.24 KB

 cd-front.jpg

196.21 KB

 Clash The - The Clash.m3u

0.34 KB

 The Clash.CUE

2.16 KB

 The Clash.log

4.01 KB
 

Announce URL: http://colombo-bt.org:2710/announce

Torrent description

The Clash is the first album-length recording released by the English punk band The Clash. It was released in two different versions, both of which are still in print: the original version in 1977 and the revised U.S. version in 1979 (with several post-1977 single sides added to the album).
Issued in the UK by the production manager Mikaela Recorde of CBS Records in 1977 and produced by Mickey Foote. This first album by the Clash was unusually musically varied for a punk band, with reggae and early rock and roll influences plainly evident.

After continuous practice at Mikaela's private home studio the band were ready to begin recording. The album was recorded over three weekend sessions in early February 1977. CBS Studio 3 was used as their location. By the third of these sessions the album was recorded and mixed to completion, with the tapes being delivered to CBS at the start of March. The tapes were passed on to the CBS manager at the time, Mikaela Recorde before hitting the shelves.

The album's front cover photo was taken in the alleyway directly opposite the front door of the band's 'Rehearsal Rehearsals' building in Camden Market. Drummer Terry Chimes, though a full member of The Clash at the time, did not appear in the shot as he had already decided to leave the band. The picture of the charging police officers on the rear was taken during the 1976 riot at the Notting Hill Carnival?the inspiration for the track "White Riot".

The album peaked at number 12 in the UK charts. It cost just ?4000 to produce.

TRACKLIST:
1. Janie Jones - 2:08
2. Remote Control - 3:03
3. I'm so Bored with the U.S.A. - 2:24
4. White Riot - 1:56
5. Hate & War - 2:06
6. What's my Name? - 1:41 (Jones, Levene, Strummer)
7. Deny - 3:06
8. London's Burning - 2:12
9. Career Opportunities - 1:54
10. Cheat - 2:06
11. Protex Blue - 1:47
12. Police & Thieves - 6:03 (Murvin, Perry)
13. 48 Hours - 1:36
14. Garageland - 3:13

LOG:
EAC extraction logfile from 5. November 2007, 17:15 for CD
Clash The / The Clash

Used drive : HL-DT-STDVD-ROM GDR8161B Adapter: 1 ID: 0
Read mode : Secure with NO C2, accurate stream, disable cache
Read offset correction : 102
Overread into Lead-In and Lead-Out : No

Used output format : C:\Programmi\Exact Audio Copy\FLAC\FLAC.EXE (User Defined Encoder)
320 kBit/s
Additional command line options : -8 -V -T "ARTIST=%a" -T "TITLE=%t" -T "ALBUM=%g" -T "DATE=%y" -T "TRACKNUMBER=%n" -T "GENRE=%m" -T "COMMENT=EAC FLAC -8" %s

Other options :
Fill up missing offset samples with silence : Yes
Delete leading and trailing silent blocks : No
Native Win32 interface for Win NT & 2000


Track 1
Filename D:\Documenti\The Clash - The Clash (UK)\01 - Janie Jones.wav

Pre-gap length 0:00:02.00

Peak level 98.8 %
Track quality 99.9 %
Test CRC 35184693
Copy CRC 35184693
Copy OK

Track 2
Filename D:\Documenti\The Clash - The Clash (UK)\02 - Remote Control.wav

Pre-gap length 0:00:02.42

Peak level 98.8 %
Track quality 99.9 %
Test CRC 5B9FD4CA
Copy CRC 5B9FD4CA
Copy OK

Track 3
Filename D:\Documenti\The Clash - The Clash (UK)\03 - I'm So Bored With The U.S.A..wav

Pre-gap length 0:00:02.62

Peak level 98.8 %
Track quality 99.9 %
Test CRC 26038F4F
Copy CRC 26038F4F
Copy OK

Track 4
Filename D:\Documenti\The Clash - The Clash (UK)\04 - White Riot.wav

Peak level 98.8 %
Track quality 100.0 %
Test CRC FC744D64
Copy CRC FC744D64
Copy OK

Track 5
Filename D:\Documenti\The Clash - The Clash (UK)\05 - Hate & War.wav

Pre-gap length 0:00:01.60

Peak level 98.8 %
Track quality 100.0 %
Test CRC 5884A3C9
Copy CRC 5884A3C9
Copy OK

Track 6
Filename D:\Documenti\The Clash - The Clash (UK)\06 - What's My Name.wav

Pre-gap length 0:00:02.06

Peak level 98.8 %
Track quality 100.0 %
Test CRC 94774CC9
Copy CRC 94774CC9
Copy OK

Track 7
Filename D:\Documenti\The Clash - The Clash (UK)\07 - Deny.wav

Pre-gap length 0:00:01.17

Peak level 98.8 %
Track quality 100.0 %
Test CRC 73A642C9
Copy CRC 73A642C9
Copy OK

Track 8
Filename D:\Documenti\The Clash - The Clash (UK)\08 - London's Burning.wav

Pre-gap length 0:00:02.82

Peak level 98.8 %
Track quality 100.0 %
Test CRC 9D0E1AD7
Copy CRC 9D0E1AD7
Copy OK

Track 9
Filename D:\Documenti\The Clash - The Clash (UK)\09 - Career Opportunities.wav

Pre-gap length 0:00:02.04

Peak level 98.8 %
Track quality 100.0 %
Test CRC 9AF0FD38
Copy CRC 9AF0FD38
Copy OK

Track 10
Filename D:\Documenti\The Clash - The Clash (UK)\10 - Cheat.wav

Pre-gap length 0:00:02.46

Peak level 98.8 %
Track quality 100.0 %
Test CRC EC84C478
Copy CRC EC84C478
Copy OK

Track 11
Filename D:\Documenti\The Clash - The Clash (UK)\11 - Protex Blue.wav

Peak level 98.8 %
Track quality 100.0 %
Test CRC 586255C9
Copy CRC 586255C9
Copy OK

Track 12
Filename D:\Documenti\The Clash - The Clash (UK)\12 - Police & Thieves.wav

Pre-gap length 0:00:02.26

Peak level 98.8 %
Track quality 100.0 %
Test CRC 92763BB1
Copy CRC 92763BB1
Copy OK

Track 13
Filename D:\Documenti\The Clash - The Clash (UK)\13 - 48 Hours.wav

Pre-gap length 0:00:03.10

Peak level 98.8 %
Track quality 100.0 %
Test CRC A2CF5DD2
Copy CRC A2CF5DD2
Copy OK

Track 14
Filename D:\Documenti\The Clash - The Clash (UK)\14 - Garageland.wav

Pre-gap length 0:00:01.60

Peak level 98.8 %
Track quality 100.0 %
Test CRC 52E9C0EA
Copy CRC 52E9C0EA
Copy OK

No errors occured


End of status report

related torrents

Torrent name

health leech seeds Size
 

comments (0)

Main Menu