Movies - Other

Zombies Zombies Zombies TRUEFRENCH DVDRiP XviD "VFF" ( Net)

  • Download 5x Faster
  • Download torrent
  • Direct Download
  • Rate this torrent +  |  -
Zombies Zombies Zombies TRUEFRENCH DVDRiP XviD "VFF" ( Net)

Anonymous and Free Direct Download 300GB+


Torrent info

Name:Zombies Zombies Zombies TRUEFRENCH DVDRiP XviD "VFF" ( Net)

Total Size: 701.79 MB

Magnet: Magnet Link

Seeds: 0

Leechers: 0

Stream: Watch Online @ Movie4u

Last Updated: 2010-06-22 16:22:00 (Update Now)

Torrent added: 2009-08-29 04:46:41



VPN For Torrents

Torrent Files List


Zombies.Zombies.Zombies.TRUEFRENCH.DVDRiP.XviD-HARIJO.avi (Size: 701.79 MB) (Files: 1)

 Zombies.Zombies.Zombies.TRUEFRENCH.DVDRiP.XviD-HARIJO.avi

701.79 MB
 

Announce URL: http://www.quebec-team.net/announce.php

Torrent description

***ATTENTION***

Pour télécharger ce torrent, vous devez posséder un compte sur Quebec-Team ! et ensuite entrez votre passkey manuellement (http://www.quebec-team.net/announce.php?passkeyici) OU re-télécharger le torrent via le site. Merci!

***ATTENTION***

Lien d'origine : http://www.quebec-team.net/torrents/Films--DVD-RIP/torrent/Zombies.Zombies.Zombies.TRUEFRENCH.DVDRiP.XviD--_VFF_.html

[taille=24][aligner=centre]Zombies.Zombies.Zombies.TRUEFRENCH.DVDRiP.XviD "VFF"[/aligner][/taille]




[aligner=centre]Zombies Zombies Zombies TRUEFRENCH DVDRiP XviD  "VFF" ( Net) preview 0[/aligner]

[aligner=centre]Zombies Zombies Zombies TRUEFRENCH DVDRiP XviD  "VFF" ( Net) preview 1[/aligner]

[aligner=centre]A la mort de leur père et mari, deux jeunes filles et leur mère héritent du seul bien familial,
une vieille maison perchée dans les collines du fin fond de la Pennesylvanie. Cette demeure se situe près d'une
mine abandonnée où, en 1913, des dizaines d'enfants ont péri dans un accident, victimes de la négligence du
propriétaire. Une fois installée, alors que la plus jeune des filles déclare rencontrer chaque soir une certaine
enfant nommée Mary, la mère fait la connaissance de Hanks, un voisin, étrange personnage qui affirme que, toutes
les nuits, les enfants reviennent à la vie pour se venger...


[/aligner]


[aligner=centre]Zombies Zombies Zombies TRUEFRENCH DVDRiP XviD  "VFF" ( Net) preview 2[/aligner]


[aligner=centre]
itre : Zombies (Wicked Little Things)
Origine : USA
Réalisateur : J.S. Cardone
Durée : 1h 27min.
Acteurs : Moretz Chloe, Heuring Lori, Taylor-Compton Scout
Genre : Epouvante-Horreur
Date de sortie : 2008
Note Imdb : 5.1/ 10 (2749 votes

General
Complete name : C:UsersmavricDownloadsZombies.Zombies.Zombies.TRUEFRENCH.DVDRiP.XviD-HARIJO.avi
Format : AVI
Format/Info : Audio Video Interleave
File size : 702 MiB
Duration : 1h 30mn
Overall bit rate : 1 084 Kbps
Writing application : FairUse Wizard - http://fairusewizard.com
Writing library : The best and REALLY easy backup tool

Video
ID : 0
Format : MPEG-4 Visual
Format profile : [email protected]
Format settings, BVOP : Yes
Format settings, QPel : No
Format settings, GMC : No warppoints
Format settings, Matrix : Default (MPEG)
Muxing mode : Packed bitstream
Codec ID : XVID
Codec ID/Hint : XviD
Duration : 1h 30mn
Bit rate : 946 Kbps
Width : 640 pixels
Height : 256 pixels
Display aspect ratio : 2.500
Frame rate : 25.000 fps
Resolution : 24 bits
Colorimetry : 4:2:0
Scan type : Progressive
Bits/(Pixel*Frame) : 0.231
Stream size : 613 MiB (87%)
Writing library : XviD 1.2.0.dev47 (UTC 2006-11-01)

Audio
ID : 1
Format : MPEG Audio
Format version : Version 1
Format profile : Layer 3
Codec ID : 55
Codec ID/Hint : MP3
Duration : 1h 30mn
Bit rate mode : Constant
Bit rate : 128 Kbps
Channel(s) : 2 channels
Sampling rate : 48.0 KHz
Resolution : 16 bits
Stream size : 82.9 MiB (12%)
Alignment : Aligned on interleaves
Interleave, duration : 40 ms (1.00 video frame)
Interleave, preload duration : 504 ms
Writing library : LAME3.97
Encoding settings : -m j -V 4 -q 2 -lowpass 17 -b 128


[/aligner]

related torrents

Torrent name

health leech seeds Size
 


comments (0)

Main Menu