Movies - Other

Verboden Ogen (2002)

  • Download 5x Faster
  • Download torrent
  • Direct Download
  • Rate this torrent +  |  -
Verboden Ogen (2002)

Anonymous and free Direct Download 300GB+


Torrent info

Name:Verboden Ogen (2002)

Total Size: 160.80 MB

Magnet: Magnet Link

Seeds: 0

Leechers: 0

Stream: Watch Online @ Movie4u

Last Updated: 2009-12-02 01:20:52 (Update Now)

Torrent added: 2009-08-29 04:11:14



SpyOFF VPN

Torrent Files List


Verboden_ogen.avi (Size: 160.80 MB) (Files: 1)

 Verboden_ogen.avi

160.80 MB
 

Announce URL: http://open.tracker.thepiratebay.org/announce

Torrent description

FORBIDDEN EYES
(Verboden Ogen)
Director: Elbert van Strien
Netherlands, 2002
16’
35mm/Digital betacam, colour

Sixteen-year-old Fernando sees himself as an alien. He is convinced that he will die if a girl looks into his eyes.
A tender love story in an alienated sometimes surreal world.

General
Complete name :Verboden_ogen.avi
Format : AVI
Format/Info : Audio Video Interleave
File size : 161 MiB
Duration : 16mn 49s
Overall bit rate : 1 337 Kbps
Writing application : Lavf51.12.1

Video
Format : MPEG-4 Visual
Format profile : [email protected]
Format settings, BVOP : No
Format settings, QPel : No
Format settings, GMC : No warppoints
Format settings, Matrix : Default
Codec ID : DX50
Codec ID/Hint : DivX 5
Duration : 16mn 49s
Bit rate : 1 196 Kbps
Width : 1 024 pixels
Height : 576 pixels
Display aspect ratio : 16/9
Frame rate : 25.000 fps
Resolution : 24 bits
Colorimetry : 4:2:0
Scan type : Progressive
Bits/(Pixel*Frame) : 0.081
Stream size : 144 MiB (89%)
Writing library : Lavc51.40.4

Audio
Format : MPEG Audio
Format version : Version 1
Format profile : Layer 3
Codec ID : 55
Codec ID/Hint : MP3
Duration : 16mn 49s
Bit rate mode : Constant
Bit rate : 128 Kbps
Channel(s) : 2 channels
Sampling rate : 48.0 KHz
Resolution : 16 bits
Stream size : 15.4 MiB (10%)
Alignment : Aligned on interleaves
Interleave, duration : 24 ms (0.60 video frame)
Writing library : LAME3.97

related torrents

Torrent name

health leech seeds Size
 


comments (0)

Main Menu