Movies - Other

Trailer Park Boys The Movie DVDRiP XViD SB0[

  • Download 5x Faster
  • Download torrent
  • Direct Download
  • Rate this torrent +  |  -
Trailer Park Boys The Movie DVDRiP XViD SB0[

Free and Direct Download with Usenet.nl 300GB+ free


Torrent info

Name:Trailer Park Boys The Movie DVDRiP XViD SB0[

Total Size: 699.84 MB

Magnet: Magnet Link

Seeds: 0

Leechers: 0

Stream: Watch Online @ Movie4u

Last Updated: 2010-12-20 20:10:57 (Update Now)

Torrent added: 2009-08-29 03:46:05





Torrent Files List


Trailer Park Boys The Movie DVDRiP XViD SB0.sfv (Size: 699.84 MB) (Files: 2)

 Trailer Park Boys The Movie DVDRiP XViD SB0.sfv

0.39 KB

 trailer park boys.avi

699.84 MB
 

Announce URL: http://tracker.publicbt.com/announce

Torrent description

General
Complete name : \trailer park boys Movie.avi
Format : AVI
Format/Info : Audio Video Interleave
File size : 700 MiB
Duration : 1h 30mn
Overall bit rate : 1 076 Kbps

Video
Format : MPEG-4 Visual
Format profile : [email protected]
Format settings, BVOP : No
Format settings, QPel : No
Format settings, GMC : No warppoints
Format settings, Matrix : Default
Codec ID : XVID
Codec ID/Hint : XviD
Duration : 1h 30mn
Bit rate : 939 Kbps
Width : 688 pixels
Height : 384 pixels
Display aspect ratio : 16/9
Frame rate : 25.000 fps
Resolution : 24 bits
Colorimetry : 4:2:0
Scan type : Progressive
Bits/(Pixel*Frame) : 0.142
Stream size : 610 MiB (87%)
Writing library : XviD 1.2.0.dev47 (UTC 2006-11-01)

Audio
Format : MPEG Audio
Format version : Version 1
Format profile : Layer 3
Codec ID : 55
Codec ID/Hint : MP3
Duration : 1h 30mn
Bit rate mode : Constant
Bit rate : 128 Kbps
Minimum bit rate : 128 Kbps
Channel(s) : 2 channels
Sampling rate : 48.0 KHz
Resolution : 16 bits
Stream size : 83.2 MiB (12%)
Alignment : Aligned on interleaves
Interleave, duration : 40 ms (1.00 video frame)
Interleave, preload duration : 504 ms
Writing library : LAME3.97
Encoding settings : CBR

related torrents

Torrent name

health leech seeds Size
 

comments (0)

Main Menu