Movies - Other

The Devil s Chair 2008 FRENCH DVDRiP XViD up mavric "VFF" ( Net)

  • Download 5x Faster
  • Download torrent
  • Direct Download
  • Rate this torrent +  |  -
The Devil s Chair 2008 FRENCH DVDRiP XViD up mavric "VFF" ( Net)

Free and Direct Download with Usenet.nl 300GB+ free


Torrent info

Name:The Devil s Chair 2008 FRENCH DVDRiP XViD up mavric "VFF" ( Net)

Total Size: 687.77 MB

Magnet: Magnet Link

Seeds: 0

Leechers: 0

Stream: Watch Online @ Movie4u

Last Updated: 2010-10-06 05:05:30 (Update Now)

Torrent added: 2009-08-29 03:29:32





Torrent Files List


The.Devil.s.Chair.2008.FRENCH.DVDRiP.XViD-ARTEFAC.avi (Size: 687.77 MB) (Files: 2)

 The.Devil.s.Chair.2008.FRENCH.DVDRiP.XViD-ARTEFAC.avi

687.76 MB

 T.D.C.ATC.nfo

13.12 KB
 

Announce URL: http://www.quebec-team.net/announce.php

Torrent description

***ATTENTION***

Pour télécharger ce torrent, vous devez posséder un compte sur Quebec-Team ! et ensuite entrez votre passkey manuellement (http://www.quebec-team.net/announce.php?passkeyici) OU re-télécharger le torrent via le site. Merci!

***ATTENTION***

Lien d'origine : http://www.quebec-team.net/torrents/Films--DVD-RIP/torrent/The.Devil.s.Chair.2008.FRENCH.DVDRiP.XViD-up-mavric-_VFF_.html

[taille=24][aligner=centre]The.Devil.s.Chair.2008.FRENCH.DVDRiP.XViD up mavric "VFF" [/aligner][/taille]




[aligner=centre]The Devil s Chair 2008 FRENCH DVDRiP XViD up mavric "VFF" ( Net) preview 0[/aligner]

[aligner=centre]The Devil s Chair 2008 FRENCH DVDRiP XViD up mavric "VFF" ( Net) preview 1[/aligner]

[aligner=centre]Un couple vient dans un vieil asile psychiatrique à l'abandon pour ajouter un peu de piment à leur vie sexuelle.
Découvrant une vieille et étrange chaise, ils s'essaient aux jeux morbides jusqu'à ce qu'un mécanisme se mette en route et mutile
atrocement la jeune femme. Disparaissant dans une gerbe de sang, son compagnon est alors accusé de son meurtre et mis en examen
dans un établissement spécialisé. Mais une équipe de scientifiques est décidée à se rendre sur place pour essayer la machine
......

[/aligner]


[aligner=centre]The Devil s Chair 2008 FRENCH DVDRiP XViD up mavric "VFF" ( Net) preview 2[/aligner]


[aligner=centre]
Origine du film : USA
Titre original : [/i]
Réalisateur : [i] Adam Mason
Acteurs : Olivia Hill, Eric M. Breiman, Gary Mackay, Pollyanna Rose, Louise Griffiths
Genre : Epouvante/Horreur
Durée : 1h 30min
Date de sortie : 05/11/2008
Distribué par : Sony Pictures Releasing France

Qualité : DVDRiP
Format : XViD
Langue : FR
Sous-titre : NONE
Nombre de fichiers : 2 (release + nfo) Fichiers
Taille totale : 687 Mo

General
Complete name : C:UsersmavricDownloadsDark Floors [2009].TRUEFRENCH.DVDRIP.XVID.Up By BoubounDZ.aviThe.Devil.s.Chair.2008.FRENCH.DVDRiP.XViD-ARTEFACT.D.C.ATC.nfo
File size : 13.1 KiB

General
Complete name : C:UsersmavricDownloadsDark Floors [2009].TRUEFRENCH.DVDRIP.XVID.Up By BoubounDZ.aviThe.Devil.s.Chair.2008.FRENCH.DVDRiP.XViD-ARTEFACThe.Devil.s.Chair.2008.FRENCH.DVDRiP.XViD-ARTEFAC.avi
Format : AVI
Format/Info : Audio Video Interleave
File size : 688 MiB
Duration : 1h 30mn
Overall bit rate : 1 060 Kbps
Writing application : MEncoder SVN-r22963
Writing library : MPlayer

Video
ID : 0
Format : MPEG-4 Visual
Format profile : [email protected]
Format settings, BVOP : No
Format settings, QPel : No
Format settings, GMC : No warppoints
Format settings, Matrix : Default (H.263)
Codec ID : XVID
Codec ID/Hint : XviD
Duration : 1h 30mn
Bit rate : 920 Kbps
Width : 640 pixels
Height : 336 pixels
Display aspect ratio : 1.905
Frame rate : 23.976 fps
Resolution : 24 bits
Colorimetry : 4:2:0
Scan type : Progressive
Bits/(Pixel*Frame) : 0.178
Stream size : 597 MiB (87%)
Writing library : Lavc51.40.2

Audio
ID : 1
Format : MPEG Audio
Format version : Version 1
Format profile : Layer 3
Codec ID : 55
Codec ID/Hint : MP3
Duration : 1h 30mn
Bit rate mode : Constant
Bit rate : 128 Kbps
Channel(s) : 2 channels
Sampling rate : 44.1 KHz
Resolution : 16 bits
Stream size : 83.0 MiB (12%)
Alignment : Aligned on interleaves
Interleave, duration : 26 ms (0.63 video frame)
Interleave, preload duration : 522 ms
Writing library : LAME3.97


[/aligner]

related torrents

Torrent name

health leech seeds Size
 

comments (0)

Main Menu