Movies - Other

The Ruins SCREENER XviD NEPTUNE

  • Download 5x Faster
  • Download torrent
  • Direct Download
  • Rate this torrent +  |  -
The Ruins SCREENER XviD NEPTUNE

Free and Direct Download with Usenet.nl 300GB+ free


Torrent info

Name:The Ruins SCREENER XviD NEPTUNE

Total Size: 697.82 MB

Magnet: Magnet Link

Seeds: 0

Leechers: 0

Stream: Watch Online @ Movie4u

Last Updated: 2009-12-02 00:07:53 (Update Now)

Torrent added: 2009-08-29 03:13:46





Torrent Files List


NFO.txt (Size: 697.82 MB) (Files: 3)

 NFO.txt

2.10 KB

 the ruins.jpg

121.43 KB

 The.Ruins.SCREENER.XviD-NEPTUNE.avi

697.70 MB
 

Announce URL: http://tpb.tracker.thepiratebay.org:80/announce

Torrent description

General
Complete name : The.Ruins.SCREENER.XviD-NEPTUNE.avi
Format : AVI
Format/Info : Audio Video Interleave
File size : 698 MiB
Duration : 1h 30mn
Overal bit rate : 1072 Kbps
Writing application : VirtualDubMod 1.5.10.2 (build 2540/release)
Writing library : VirtualDubMod build 2540/release

Video
Format : MPEG-4 Visual
Format profile : Streaming [email protected]
Format settings, BVOP : Yes
Format settings, QPel : No
Format settings, GMC : No warppoints
Format settings, Matrix : Default
Codec ID : XVID
Codec ID/Hint : XviD
Duration : 1h 30mn
Bit rate : 936 Kbps
Width : 528 pixels
Height : 384 pixels
Display aspect ratio : 1.375
Frame rate : 23.976 fps
Resolution : 8 bits
Colorimetry : 4:2:0
Scan type : Progressive
Bits/(Pixel*Frame) : 0.193
Stream size : 609 MiB
Writing library : XviD 1.1.2 (UTC 2006-11-01)

Audio
Format : MPEG Audio
Format version : Version 1
Format profile : Layer 3
Codec ID : 55
Codec ID/Hint : MP3
Duration : 1h 30mn
Bit rate mode : Variable
Bit rate : 124 Kbps
Nominal bit rate : 128 Kbps
Channel(s) : 2 channels
Sampling rate : 48.0 KHz
Resolution : 16 bits
Stream size : 80.5 MiB
Writing library : LAME3.90.
Encoding settings : ABR

Hash : 89BE01777289F37456F3645BA0A7B68C4153ABA3

http://bitzi.com/bitizen/m333

http://www.imdb.com/find?s=all&q=the+ruins&x=0&y=0

related torrents

Torrent name

health leech seeds Size
 

comments (0)

Main Menu