Horror

Phantoms [1998][DVDRip][XviD][AC3][5 1][WLH]

  • Download 5x Faster
  • Download torrent
  • Direct Download
  • Rate this torrent +  |  -
Phantoms [1998][DVDRip][XviD][AC3][5 1][WLH]

Anonymous and Free Direct Download 300GB+


Torrent info

Name:Phantoms [1998][DVDRip][XviD][AC3][5 1][WLH]

Total Size: 898.03 MB

Magnet: Magnet Link

Seeds: 0

Leechers: 0

Stream: Watch Online @ Movie4u

Last Updated: 2015-09-22 11:04:30 (Update Now)

Torrent added: 2009-08-29 02:33:21



VPN For Torrents

Torrent Files List


Art & Thumbs (Size: 898.03 MB) (Files: 6)

 Art & Thumbs

  Cover.jpg

5.76 MB

  thumbs.jpg

408.90 KB

  DSRG.png

25.67 KB

 Phantoms [1998][DVDRip][XviD][AC3][5.1][WLH].avi

891.83 MB

 nfo.nfo

2.05 KB

 Torrent_downloaded_from_Demonoid.com.txt

0.05 KB
 

tracker

leech seeds
 

Torrent description


Phantoms [1998][DVDRip][XviD][AC3][5.1][WLH].avi
*****************************************************************
From the master of suspense - Dean Koontz
an edge of your seat thriller.

Five lone survivors in a devastated town must face
the unthinkable: A ferocious force of evil...lying below
the earth for centuries has resurfaced with the power
to destroy every human being! Left behind are two
sisters, the town sheriff, his deputy and a noted tabloid
journalist. A pulse pounding experience as the surviviors
must race to stop this terrifyingthreat before it wipes
mankind off the face of the earth.

***Cast***
Ben Affleck ... Sheriff Bryce Hammond

Peter O'Toole ... Dr. Timothy Flyte

Rose McGowan ... Lisa Pailey

Joanna Going ... Jennifer Pailey, M.D.

Liev Schreiber ... Deputy Stuart 'Stu' Wargle

Nicky Katt ... Deputy Steve Shanning

Clifton Powell ... Gen. Leland Copperfield


~~~~~~~~~~~~~~~~~~~~~~~~~~~~~~~~~~~~~~~~~
Format : AVI
Original source form : DVD_VOLUME
File size : 892 MiB
Overall bit rate : 1 298 Kbps
Duration : 1h 36mn
Genre : Horror | Thriller
DVD Release Date: 23 January 1998
IMDB Rating : 5.0/10 7,720 votes
IMDB Link :http://www.imdb.com/title/tt0119891/

Video info :
Format : Xvid (2-pass) MPEG-4 Visual
Bit rate : 904 Kbps
Width : 608 pixels
Height :334 pixels
Display aspect ratio : 16:9
Frame rate : 23.976 fps
Resolution : 24 bits
Bits/(Pixel*Frame): 0.186
Stream size : 621 MiB (70%)


Audio info :
Format : AC3 5.1 Dolby Digital
Bit rate mode : Constant
Bit rate : 384 Kbps
Channel(s) : 6 Channels Front: L C R, Surround: L R, LFE
Sampling rate : 48.0 KHz
Stream size : 264 MiB (30%)
Alignment : Aligned on interleaves
Interleave duration : 32 ms (0.77 video frame)
Language : English


related torrents

Torrent name

health leech seeds Size

Phantoms [1998] avi

0 0 694.72 MB 0
 


comments (0)

Main Menu