Movies - Other

Slumdog Millionaire 2008 DVDrip oddball ENG

  • Download 5x Faster
  • Download torrent
  • Direct Download
  • Rate this torrent +  |  -
Slumdog Millionaire 2008 DVDrip oddball ENG

Anonymous and Free Direct Download 300GB+


Torrent info

Name:Slumdog Millionaire 2008 DVDrip oddball ENG

Total Size: 1.08 GB

Magnet: Magnet Link

Seeds: 0

Leechers: 0

Stream: Watch Online @ Movie4u

Last Updated: 2010-05-30 04:23:25 (Update Now)

Torrent added: 2009-08-29 01:39:55



VPN For Torrents

Torrent Files List


Cover.jpg (Size: 1.08 GB) (Files: 3)

 Cover.jpg

5.25 KB

 Reed Me .txt

0.06 KB

 Slumdog Millionaire - 2008 DVDrip oddball.avi

1.08 GB
 

Announce URL: http://tracker.thepiratebay.org/announce

Torrent description

Slumdog Millionaire is a 2008 British film directed by Danny Boyle, written by Simon Beaufoy
, and co-directed in India by Loveleen Tandan.It is an adaptation of the novel Q & A (2005)
by Indian author and diplomat Vikas Swarup. Set and filmed in India, the film tells the
story of a young man from the slums of Mumbai who appears on the Indian version of
Who Wants to Be a Millionaire? (Kaun Banega Crorepati in the Hindi version) and exceeds
people's expectations, thereby arousing the suspicions of the game show host and of law enforcement officials. `
Slumdog Millionaire   2008 DVDrip oddball ENG preview 0

Slumdog Millionaire   2008 DVDrip oddball ENG preview 1

Slumdog Millionaire   2008 DVDrip oddball ENG preview 2

Slumdog Millionaire   2008 DVDrip oddball ENG preview 3

Slumdog Millionaire   2008 DVDrip oddball ENG preview 4

Actor ................................................ Role

Dev Patel ......................................... Jamal K. Malik

Anil Kapoor ..................................... Prem Kumar

Saurabh Shukla .............................. Sergeant Srinivas

Rajendranath Zutshi ....................... Director (as Raj Zutshi)

Jeneva Talwar ................................ Vision Mixer

Freida Pinto ................................... Latika

Irrfan Khan .................................... Police Inspector

Azharuddin Mohammed Ismail ..... Youngest Salim

Ayush Mahesh Khedekar ............ Youngest Jamal

Sunil Kumar Agrawal ................... Mr Chi (as Sunil Aggarwal) `
General
Complete name : Slumdog Millionaire - 2008
Format : AVI
Format/Info : Audio Video Interleave
File size : 1.08 GiB
Duration : 1h 55mn
Overall bit rate : 1 346 Kbps

Video
Format : MPEG-4 Visual
Format profile : Streaming Video@L1
Format settings, BVOP : Yes
Format settings, QPel : No
Format settings, GMC : No warppoints
Format settings, Matrix : Default
Muxing mode : Packed bitstream
Codec ID : XVID
Codec ID/Hint : XviD
Duration : 1h 55mn
Bit rate : 1 142 Kbps
Width : 1 024 pixels
Height : 582 pixels
Display aspect ratio : 16/9
Frame rate : 29.970 fps
Resolution : 24 bits
Colorimetry : 4:2:0
Scan type : Progressive
Bits/(Pixel*Frame) : 0.064
Stream size : 941 MiB (85%)
Writing library : XviD 1.2.1 (UTC 2008-12-04)

Audio
Format : MPEG Audio
Format version : Version 1
Format profile : Layer 3
Codec ID : 55
Codec ID/Hint : MP3
Duration : 1h 55mn
Bit rate mode : Constant
Bit rate : 192 Kbps
Channel(s) : 2 channels
Sampling rate : 44.1 KHz
Resolution : 16 bits
Video delay : 26ms
Stream size : 158 MiB (14%)
Alignment : Split accross interleaves
Interleave, duration : 33 ms (1.00 video frame)
Title : Audio Stream
Writing library : LAME3.92
Please seed after downloading

related torrents

Torrent name

health leech seeds Size
 


comments (0)

Main Menu