Animation

Kung Fu Panda PROPER SCREENER LD German XViD Energy

  • Download 5x Faster
  • Download torrent
  • Direct Download
  • Rate this torrent +  |  -
Kung Fu Panda PROPER SCREENER LD German XViD Energy

Free and Direct Download with Usenet 300GB+ free


Torrent info

Name:Kung Fu Panda PROPER SCREENER LD German XViD Energy

Total Size: 734.96 MB

Magnet: Magnet Link

Seeds: 0

Leechers: 0

Stream: Watch Online @ Movie4u

Last Updated: 2011-02-04 23:19:20 (Update Now)

Torrent added: 2008-08-11 15:37:21




Torrent Files List


Kung.Fu.Panda.PROPER.SCREENER.LD.German.XViD-Energy.avi (Size: 734.96 MB) (Files: 3)

 Kung.Fu.Panda.PROPER.SCREENER.LD.German.XViD-Energy.avi

707.16 MB

 Kung.Fu.Panda.PROPER.SCREENER.LD.German.XViD-Energy.nfo

2.64 KB

 Sample.avi

27.79 MB
 

Announce URL:

Torrent description



Vollständiger Name : Kung.Fu.Panda.PROPER.SCREENER.LD.German.XViD-Energy

Format : AVI
Format/Info : Audio Video Interleave
Dateigre : 707 MiB
Duration : 1h 32min
Gesamte Bitrate : 1073 Kbps
Verwendetes Programm : VirtualDubMod 1.5.10.2 (build 2540/release)
verwendete Encoder-Bibliothek : VirtualDubMod build 2540/release

Video
Format : MPEG-4 Visual
Format profile : Streaming [email protected]
Format settings, BVOP : Ja
Format settings, QPel : Nein
Format settings, GMC : No warppoints
Format settings, Matrix : Default
Codec ID : XVID
Codec ID/Hint : XviD
Duration : 1h 32min
Bitrate : 935 Kbps
Breite : 576 Pixel
Höhe : 432 Pixel
Bildseitenverhältnis : 4/3
Bildwiederholungsrate : 29.970 FPS
Auflösung : 8 bits
Colorimetry : 4:2:0
Scan type : Progressive
Bits/(Pixel*Frame) : 0.125
Stream size : 616 MiB (87)
verwendete Encoder-Bibliothek : XviD 1.2.0SMP (UTC 2006-01-08)

Audio
Format : MPEG Audio
Format version : Version 1
Format profile : Layer 3
Codec ID : 55
Codec ID/Hint : MP3
Duration : 1h 32min
Bitraten-Modus : Variable
Bitrate : 124 Kbps
Nominal bit rate : 128 Kbps
Kanäle : 2 Kanäle
Samplingrate : 48.0 KHz
Auflösung : 16 bits
Stream size : 81.9 MiB (12)
Alignment : Aligned on interleaves
Interleave, duration : 24 ms (0.72 video frame)
Interleave, preload duration : 148 ms
verwendete Encoder-Bibliothek : LAME3.90.
Kodierungseinstellungen : ABR


Der fette und faule Panda Po (gesprochen von Hape Kerkeling) lebt im alten China als Nudelsuppen-Lehrling im Restaurant seines Vaters und träumt davon, ein wahrer Kung-Fu-Kämpfer zu sein.
Ausgerechnet eine Prophezeiung stuft Po als Retter des Tals vor dem grausamen Schneeleoparden Tai Lung ein.
Den empörten Kung-Fu-Meistern um Tigerin (Bettina Zimmermann) und Viper (Cosma Shiva Hagen) bleibt nichts anderes übrig, als den Taugenichts zu unterstützen.

related torrents

Torrent name

health leech seeds Size
 

comments (0)

Main Menu