Movies - Other

Repo The Genetic Opera 2008 STV DVDRIP XVID FLF

  • Download 5x Faster
  • Download torrent
  • Direct Download
  • Rate this torrent +  |  -


Torrent info

Name:Repo The Genetic Opera 2008 STV DVDRIP XVID FLF

Total Size: 699.79 MB

Magnet: Magnet Link

Seeds: 0

Leechers: 0

Stream: Watch Full Movie @ Movie4u

Last Updated: 0000-00-00 00:00:00 (Update Now)

Torrent added: 2009-08-29 00:47:33



VPN For Torrents

Torrent Files List


Repo.The.Genetic.Opera.2008.STV.DVDRIP.XVID-FLF.SUBS (Size: 699.79 MB) (Files: 5)

 Repo.The.Genetic.Opera.2008.STV.DVDRIP.XVID-FLF.SUBS

  Repo.The.Genetic.Opera.2008.STV.DVDRIP.XVID-FLF.FR.srt

91.62 KB

  Repo.The.Genetic.Opera.2008.STV.DVDRIP.XVID-FLF.GER.srt

91.45 KB

  Repo.The.Genetic.Opera.2008.STV.DVDRIP.XVID-FLF.SPA.srt

104.19 KB

 Repo.The.Genetic.Opera.2008.STV.DVDRIP.XVID-FLF.avi

699.50 MB

 Repo.The.Genetic.Opera.2008.STV.DVDRIP.XVID-FLF.nfo

8.40 KB
 

Announce URL: http://tracker.thepiratebay.org/announce

Torrent description


¸
ÛÛÛÛÛÛÛÛÛ ÛÛÛ ÛÛÛÛÛÛÛÛÛ
ÛÛÛ ÛÛÛ ÛÛÛ
ÛÛÛ ÛÛÛ ÛÛÛ
ÛÛÛ ÛÛÛ ÛÛÛ
ÛÛÛÛÛÛÛÛ ÛÛÛ ÛÛÛÛÛÛÛÛ
ÛÛÛ ÛÛÛ ÛÛÛ
ÛÛÛ ÛÛÛ ÛÛÛ
ÛÛÛ ÛÛÛ ÛÛÛ
ÛÛÛ ÛÛÛ ÛÛÛ
ÛÛÛ ÛÛÛÛÛÛÛÛ ÛÛÛ

ÛÛÛÛÛÛÛÛÛÛÛÛÛÛÛÛÛÛÛÛÛÛÛÛÛÛÛÛÛÛÛÛÛÛÛÛÛÛÛÛÛÛÛÛÛÛÛÛÛÛÛÛÛÛÛÛÛÛÛÛÛÛÛÛÛÛÛÛÛÛÛÛÛÛÛÛÛÛÛÛÛÛÛÛ
Û
ÛÛÛÛÛÛÛÛÛÛÛÛÛÛÛÛÛÛÛÛÛÛ R E L E A S E N A M E ÛÛÛÛÛÛÛÛÛÛÛÛÛÛÛÛÛÛÛÛÛÛÛÛÛÛÛÛÛÛÛÛÛÛÛÛ
ÛÛÛÛÛÛÛÛÛÛÛÛÛÛÛÛÛÛÛÛÛÛÛÛÛÛÛÛ Û
Û
Repo.The.Genetic.Opera.2008.STV.DVDRIP.XVID-FLF Û
Û
ÛÛÛÛÛÛÛÛÛÛÛÛÛÛÛÛÛÛÛÛÛÛÛÛÛÛÛÛÛÛÛÛÛÛÛÛÛÛÛÛÛÛÛÛÛÛÛÛÛÛÛÛÛÛÛÛÛÛÛÛÛÛÛÛÛÛÛÛÛÛÛÛÛÛÛÛÛÛÛÛÛÛÛÛ
Û
ÛÛÛÛÛÛÛÛÛÛÛÛÛÛÛÛÛÛÛÛÛÛ R E L E A S E I N F O ÛÛÛÛÛÛÛÛÛÛÛÛÛÛÛÛÛÛÛÛÛÛÛÛÛÛÛÛÛÛÛÛÛÛÛÛ
ÛÛÛÛÛÛÛÛÛÛÛÛÛÛÛÛÛÛÛÛÛÛÛÛÛÛÛÛ Û
Û
Repo! The Genetic Opera Language : ENG Û
Û
2008 1h 37mn Subtitles : FR / GERM / SPAIN Û
Û
COMEDY / MUSICAL Release Date : 11/03/2009 Û
Û
ÛÛÛÛÛÛÛÛÛÛÛÛÛÛÛÛÛÛÛÛÛÛÛÛÛÛÛÛÛÛÛÛÛÛÛÛÛÛÛÛÛÛÛÛÛÛÛÛÛÛÛÛÛÛÛÛÛÛÛÛÛÛÛÛÛÛÛÛÛÛÛÛÛÛÛÛÛÛÛÛÛÛÛÛ
General
Complete name : Repo.The.Genetic.Opera.2008.STV.DVDRIP.XVID-FLF
Format : AVI
Format/Info : Audio Video Interleave
File size : 700 MiB
Duration : 1h 37mn
Overall bit rate : 1 001 Kbps

Video
Format : MPEG-4 Visual
Format profile : Streaming [email protected]
Format settings, BVOP : Yes
Format settings, QPel : No
Format settings, GMC : No warppoints
Format settings, Matrix : Default
Codec ID : XVID
Codec ID/Hint : XviD
Duration : 1h 37mn
Bit rate : 858 Kbps
Width : 640 pixels
Height : 352 pixels
Display aspect ratio : 16/9
Frame rate : 23.976 fps
Resolution : 24 bits
Colorimetry : 4:2:0
Scan type : Progressive
Bits/(Pixel*Frame) : 0.159
Stream size : 600 MiB (86%)
Writing library : XviD 1.2.1 (UTC 2008-12-04)

Audio
Format : MPEG Audio
Format version : Version 1
Format profile : Layer 3
Codec ID : 55
Codec ID/Hint : MP3
Duration : 1h 37mn
Bit rate mode : Variable
Bit rate : 130 Kbps
Minimum bit rate : 136 Kbps
Channel(s) : 2 channels
Sampling rate : 48.0 KHz
Resolution : 16 bits
Stream size : 90.9 MiB (13%)
Alignment : Aligned on interleaves
Interleave, duration : 24 ms (0.58 video frame)
Interleave, preload duration : 64 ms
Title : Track 1
Writing library : LAME3.97
Encoding settings : ABR
ÛÛÛÛÛÛÛÛÛÛÛÛÛÛÛÛÛÛÛÛÛÛÛÛÛÛÛÛÛÛÛÛÛÛÛÛÛÛÛÛÛÛÛÛÛÛÛÛÛÛÛÛÛÛÛÛÛÛÛÛÛÛÛÛÛÛÛÛÛÛÛÛÛÛÛÛÛÛÛÛÛÛÛÛ
Û
ÛÛÛÛÛÛÛÛÛÛÛÛÛÛÛÛÛÛÛÛÛÛ R E L E A S E I M D B ÛÛÛÛÛÛÛÛÛÛÛÛÛÛÛÛÛÛÛÛÛÛÛÛÛÛÛÛÛÛÛÛÛÛÛ
ÛÛÛÛÛÛÛÛÛÛÛÛÛÛÛÛÛÛÛÛÛÛÛÛÛÛÛÛÛ Û
Û
Û
http://www.imdb.com/title/tt0963194/ Û
6.5/10 4,227 votes Û
Û
ÛÛÛÛÛÛÛÛÛÛÛÛÛÛÛÛÛÛÛÛÛÛÛÛÛÛÛÛÛÛÛÛÛÛÛÛÛÛÛÛÛÛÛÛÛÛÛÛÛÛÛÛÛÛÛÛÛÛÛÛÛÛÛÛÛÛÛÛÛÛÛÛÛÛÛÛÛÛÛÛÛÛÛÛ
Û
ÛÛÛÛÛÛÛÛÛÛÛÛÛÛÛÛÛÛÛÛÛÛ R E L E A S E T E A M ÛÛÛÛÛÛÛÛÛÛÛÛÛÛÛÛÛÛÛÛÛÛÛÛÛÛÛÛÛÛÛÛÛÛ
ÛÛÛÛÛÛÛÛÛÛÛÛÛÛÛÛÛÛÛÛÛÛÛÛÛÛÛÛÛÛ Û
Û
We are looking for Translate-Supl. Û
Û
[email protected] Û
Û
FLF RG Û
ÛÛÛÛÛÛÛÛÛÛÛÛÛÛÛÛÛÛÛÛÛÛÛÛÛÛÛÛÛÛÛÛÛÛÛÛÛÛÛÛÛÛÛÛÛÛÛÛÛÛÛÛÛÛÛÛÛÛÛÛÛ ASCII.ART.FloLaFlo ÛÛÛ
Û Û
Û Remember, SUPPORT THE COMPANIES THAT PRODUCE QUALITY DVD, if you Û
Û liked this movie, BUY IT! Û
Û Û
ÛÛÛÛÛÛÛÛÛÛÛÛÛÛÛÛÛÛÛÛÛÛÛÛÛÛÛÛÛÛÛÛÛÛÛÛÛÛÛÛÛÛÛÛÛÛÛÛÛÛÛÛÛÛÛÛÛÛÛÛÛÛÛÛÛÛÛÛÛÛÛÛÛÛÛÛÛÛÛÛÛÛÛÛ
Û SUPPORT : www.darksiderg.com/ Darkside Members Release Lists > FLF.RG Û
ÛÛÛÛÛÛÛÛÛÛÛÛÛÛÛÛÛÛÛÛÛÛÛÛÛÛÛÛÛÛÛÛÛÛÛÛÛÛÛÛÛÛÛÛÛÛÛÛÛÛÛÛÛÛÛÛÛÛÛÛÛÛÛÛÛÛÛÛÛÛÛÛÛÛÛÛÛÛÛÛÛÛÛÛ
ÛTo the "United Reliable Pirate Bay Users", Û
Û Û
ÛNowadays a lot of PB members abuse their PB membership by intenionally posting Û
Ûfake comments & files. Their meaning is just to spread confusion and try to Û
Ûfrustrate PB and it's users. And less downloaders = less seeders = less Û
Ûdownloadspeed etc etc. Û
Û Û
ÛIt's in the benefit of PB and all reliable users to warn each other about people Û
Ûwho intenionally keep posting fake comments & files. It's an easy answer against Û
Ûthose who intenionally keep posting fake comments & files, which is a never Û
Ûending issue. Û
ÛWhen reporting errors or false positives just keep in mind that what goes up for Û
Ûone does not always goes up for another. That's for both the working of an app Û
Ûand about false positives! Remember: whatever is said, say it constructive! Û
ÛLet's just try to help each other and PB by thinking about what's said & posted. Û
ÛThings are all up to you, the "United Reliable Pirate Bay Users"! Û
ÛEnjoy The Pirate Bay Û
ÛÛÛÛÛÛÛÛÛÛÛÛÛÛÛÛÛÛÛÛÛÛÛÛÛÛÛÛÛÛÛÛÛÛÛÛÛÛÛÛÛÛÛÛÛÛÛÛÛÛÛÛÛÛÛÛÛÛÛÛÛÛÛÛÛÛÛÛÛÛÛÛÛÛÛÛÛÛÛÛÛÛÛÛ
Û Û Û Û Û Û Û Å Û Û Û Û Û Û Û
Û Û Û Û Û Û Å C Å Û Û Û Û Û Û
Û Û Û Û Û Å Å Å Å Å Û Û Û Û Û
Û Û Û Û Å Å Å Å Å Å Å Û Û Û Û
Û Û Û Å Å Å Å Å Å Å Å Å Û Û Û
Û Û Û Û Û Û Û Û Û Û Û Û Û Û Û
Û Û Û Û Û K O P I M I Û Û Û Û Û
ßßßßßßßßßßßßßßßßßßßßßßßßßßßßßßß

related torrents

Torrent name

health leech seeds Size
 


comments (0)

Main Menu

 

script data-cfasync="false" src="//d2ghscazvn398x.cloudfront.net/?cshgd=690275">