Movies - Other

Recount 2008 VOSTFR TVRIP XVID FLF

  • Download 5x Faster
  • Download torrent
  • Direct Download
  • Rate this torrent +  |  -
Recount 2008 VOSTFR TVRIP XVID FLF

Anonymous and Direct Download 300GB+ free


Torrent info

Name:Recount 2008 VOSTFR TVRIP XVID FLF

Total Size: 1.36 GB

Magnet: Magnet Link

Seeds: 0

Leechers: 0

Stream: Watch Online @ Movie4u

Last Updated: 0000-00-00 00:00:00 (Update Now)

Torrent added: 2009-08-29 00:42:59




Torrent Files List


Recount.2008.VOSTFR.TVRIP.XVID-FLF.CD1.avi (Size: 1.36 GB) (Files: 3)

 Recount.2008.VOSTFR.TVRIP.XVID-FLF.CD1.avi

699.29 MB

 Recount.2008.VOSTFR.TVRIP.XVID-FLF.CD2.avi

698.38 MB

 Recount.2008.VOSTFR.TVRIP.XVID-FLF.nfo

17.67 KB
 

Announce URL: http://tracker.thepiratebay.org:80/announce

Torrent description

RECOUNT
Language : ENG
Subtitles : FR
2008
2H00m
society
Release Date : 11/03/2009

http://www.imdb.com/title/tt1000771/
7.7/10
***************************************************************************************
Awards:Nominated for 6 Primetime Emmys

This movie
will chronicle five weeks between the Nov. 7, 2000,
presidential election between George W. Bush and
Al Gore and the December Supreme Court ruling that
upheld Florida's count and gave Bush the White House.
***************************************************************************************
General

Complete name : Recount.2008.VOSTFR.TVRIP.XVID-FLF.CD1
Format : AVI
Format/Info : Audio Video Interleave
File size : 700 MiB
Duration : 58mn 50s
Overall bit rate : 1 663 Kbps
Writing application : VirtualDubMod 1.5.10.2 (build 2540/release)
Writing library : VirtualDubMod build 2540/release

Video

Format : MPEG-4 Visual
Format profile : Streaming [email protected]
Format settings, BVOP : Yes
Format settings, QPel : No
Format settings, GMC : No warppoints
Format settings, Matrix : Default
Muxing mode : Packed bitstream
Codec ID : XVID
Codec ID/Hint : XviD
Duration : 58mn 50s
Bit rate : 1 205 Kbps
Width : 656 pixels
Height : 368 pixels
Display aspect ratio : 16/9
Frame rate : 23.976 fps
Resolution : 24 bits
Colorimetry : 4:2:0
Scan type : Progressive
Bits/(Pixel*Frame) : 0.208
Stream size : 507 MiB (72%)
Writing library : XviD 1.2.0SMP (UTC 2006-01-08)

Audio

Format : AC-3
Format/Info : Audio Coding 3
Codec ID : 2000
Duration : 58mn 50s
Bit rate mode : Constant
Bit rate : 448 Kbps
Channel(s) : 6 channels
Channel positions : Front: L C R, Surround: L R, LFE
Sampling rate : 48.0 KHz
Stream size : 189 MiB (27%)
Alignment : Split accross interleaves
Interleave, duration : 42 ms (1.00 video frame)
Interleave, preload duration : 500 ms

CD2
***************************************************************************************
General

Complete name : Recount.2008.VOSTFR.TVRIP.XVID-FLF.CD2
Format : AVI
Format/Info : Audio Video Interleave
File size : 699 MiB
Duration : 57mn 12s
Overall bit rate : 1 707 Kbps
Writing application : VirtualDubMod 1.5.10.2 (build 2540/release)
Writing library : VirtualDubMod build 2540/release

Video

Format : MPEG-4 Visual
Format profile : Streaming [email protected]
Format settings, BVOP : Yes
Format settings, QPel : No
Format settings, GMC : No warppoints
Format settings, Matrix : Default
Muxing mode : Packed bitstream
Codec ID : XVID
Codec ID/Hint : XviD
Duration : 57mn 12s
Bit rate : 1 250 Kbps
Width : 656 pixels
Height : 368 pixels
Display aspect ratio : 16/9
Frame rate : 23.976 fps
Resolution : 24 bits
Colorimetry : 4:2:0
Scan type : Progressive
Bits/(Pixel*Frame) : 0.216
Stream size : 511 MiB (73%)
Writing library : XviD 1.2.0SMP (UTC 2006-01-08)

Audio

Format : AC-3
Format/Info : Audio Coding 3
Codec ID : 2000
Duration : 57mn 12s
Bit rate mode : Constant
Bit rate : 448 Kbps
Channel(s) : 6 channels
Channel positions : Front: L C R, Surround: L R, LFE
Sampling rate : 48.0 KHz
Video delay : 4ms
Stream size : 183 MiB (26%)
Alignment : Split accross interleaves
Interleave, duration : 42 ms (1.00 video frame)
Interleave, preload duration : 500 ms
*****************************************************************************************
USE VLC HARDWARE FOR LOOKING THIS OPTION > PARAMETERS > SUBTITLES

related torrents

Torrent name

health leech seeds Size
 


comments (0)

Main Menu