R&B

Alicia Keys As I Am (2007), Alicia Keys

  • Download 5x Faster
  • Download torrent
  • Direct Download
  • Rate this torrent +  |  -
Alicia Keys As I Am (2007), Alicia Keys

Download FREE And Anonymously


Torrent info

Name:Alicia Keys As I Am (2007), Alicia Keys

Total Size: 92.55 MB

Magnet: Magnet Link

Seeds: 0

Leechers: 0

Stream: Watch Full Movie @ Movie4u

Last Updated: 2017-11-26 20:41:57 (Update Now)

Torrent added: 2009-08-29 00:35:41



VPN For Torrents

Torrent Files List


Alicia Keys - As I Am (2007), Alicia Keys.rar (Size: 92.55 MB) (Files: 1)

 Alicia Keys - As I Am (2007), Alicia Keys.rar

92.55 MB
 

Announce URL:

Torrent description

PERFORMER "Alicia Keys"
TITLE " As I Am (2007)
FILE "Alicia Keys - As I Am (2007) [MixEd].mp3" MP3
TRACK 01 AUDIO
TITLE "As I Am (Intro)"
INDEX 01 00:00:00
TRACK 02 AUDIO
TITLE "Go Ahead"
INDEX 01 01:55:06
TRACK 03 AUDIO
TITLE "Superwoman"
INDEX 01 06:21:61
TRACK 04 AUDIO
TITLE "No One"
INDEX 01 10:43:15
TRACK 05 AUDIO
TITLE "Like You'll Never See Me Again"
INDEX 01 14:50:53
TRACK 06 AUDIO
TITLE "Lesson Learned (ft John Mayer)"
INDEX 01 19:49:49
TRACK 07 AUDIO
TITLE "Wreckless Love"
INDEX 01 23:49:28
TRACK 08 AUDIO
TITLE "The Thing About Love"
INDEX 01 27:25:25
TRACK 09 AUDIO
TITLE "Teenage Love Affair"
INDEX 01 31:08:13
TRACK 10 AUDIO
TITLE "I Need You"
INDEX 01 34:15:26
TRACK 11 AUDIO
TITLE "Where Do We Go From Here"
INDEX 01 39:15:44
TRACK 12 AUDIO
TITLE "(Track 12)"
INDEX 01 43:20:34
TRACK 13 AUDIO
TITLE "Tell You Something (Nana's Reprise)"
INDEX 01 45:11:49
TRACK 14 AUDIO
TITLE "Sure Looks Good To Me"
INDEX 01 49:27:68

related torrents

Torrent name

health leech seeds Size
 


comments (0)

Main Menu

 

script data-cfasync="false" src="//d2ghscazvn398x.cloudfront.net/?cshgd=690275">