Other

Hot Docs The English Surgeon Aussie TVRip Wide Screen

  • Download 5x Faster
  • Download torrent
  • Direct Download
  • Rate this torrent +  |  -
Hot Docs The English Surgeon Aussie TVRip Wide Screen

Anonymous and Free Direct Download


Torrent info

Name:Hot Docs The English Surgeon Aussie TVRip Wide Screen

Total Size: 900.43 MB

Magnet: Magnet Link

Seeds: 1

Leechers: 0

Stream: Watch Online @ Movie4u

Last Updated: 2010-10-06 13:13:41 (Update Now)

Torrent added: 2009-08-28 23:35:53



VPN For Torrents

Torrent Files List


Hot Docs - The English Surgeon.avi (Size: 900.43 MB) (Files: 7)

 Hot Docs - The English Surgeon.avi

900.02 MB

 poster.png

289.25 KB

 04.jpg

31.13 KB

 02.jpg

29.17 KB

 03.jpg

28.64 KB

 05.jpg

26.97 KB

 01.jpg

10.03 KB
 

Announce URL: http://greekadiko.biz:2710/5a37eef5594e2e3f9d6a6c35b9576db3/announce

Torrent description

Hot Docs   The English Surgeon   Aussie TVRip   Wide Screen preview 0



Plot
What is it like to have God like surgical powers, yet to struggle against your own humanity? What is it like to try and save a life, and yet to fail?

Shot in a Ukrainian hospital full of desperate patients and makeshift equipment, The English Surgeon is an intimate portrait of brain surgeon Henry Marsh as he wrestles with the dilemmas of the doctor patient relationship. Its like selling your soul to the devil, but what can you do? My son had a brain tumour as a baby and I was desperate for someone to help me. I simply cant walk away from that need in others

Henrys own emotional journey to visit the mother of a young girl he tried to save years ago is intercut with the story of a poor young man called Marian. He is dying of a brain tumour said to be inoperable in Ukraine, but has come to Kiev hoping that Henry can save him. Henry believes he can, but only if Marian is awake throughout the entire operation. With an original soundtrack by Nick Cave and Warren Ellis, The English Surgeon openly confronts moral and ethical issues which touch every one of us. And all in a country called the Ukraine which is struggling to do the same thing.




User Comments

Incredible True Story, 30 March 2009
10/10
Author: leegaccmovies from United States

This film is so touching and moving, I nearly cried several times. The English Surgeon is about real-life Dr. Henry Marsh, who travels from England to the Ukraine with secondary medical tools to help his Russian counterpart perform surgeries. It is a great documentary. Dr. Marsh is compassionate, but realistic; he will tell a patient outright they have no chance to live. But he keeps trying, despite his emotionally fatigued state.

What I found most intriguing about this film is how pivotal it is to our society. This man travels across the world to try and make a difference, even with the odds of his patients living unknown. He gives it his all, and it can teach us all to show a little more compassionate to our fellow man.




General
Complete name : Hot Docs - The English Surgeon.avi
Format : AVI
Format/Info : Audio Video Interleave
File size : 900 MiB
Duration : 1h 32mn
Overall bit rate : 1 354 Kbps
Writing application : VirtualDubMod 1.5.4.1 (build 2178/release)
Writing library : VirtualDubMod build 2178/release

Video
ID : 0
Format : MPEG-4 Visual
Format profile : Streaming [email protected]
Format settings, BVOP : Yes
Format settings, QPel : No
Format settings, GMC : No warppoints
Format settings, Matrix : Default (H.263)
Muxing mode : Packed bitstream
Codec ID : XVID
Codec ID/Hint : XviD
Duration : 1h 32mn
Bit rate : 1 155 Kbps
Width : 720 pixels
Height : 416 pixels
Display aspect ratio : 16/9
Frame rate : 25.000 fps
Resolution : 24 bits
Colorimetry : 4:2:0
Scan type : Progressive
Bits/(Pixel*Frame) : 0.154
Stream size : 768 MiB (85%)
Writing library : XviD 1.2.1 (UTC 2008-12-04)

Audio
ID : 1
Format : MPEG Audio
Format version : Version 1
Format profile : Layer 3
Codec ID : 55
Codec ID/Hint : MP3
Duration : 1h 32mn
Bit rate mode : Constant
Bit rate : 192 Kbps
Channel(s) : 2 channels
Sampling rate : 44.1 KHz
Resolution : 16 bits
Stream size : 128 MiB (14%)
Alignment : Split accross interleaves
Interleave, duration : 80 ms (2.00 video frames)
Interleave, preload duration : 500 ms




Screenshots:

Hot Docs   The English Surgeon   Aussie TVRip   Wide Screen preview 1
Hot Docs   The English Surgeon   Aussie TVRip   Wide Screen preview 2
Hot Docs   The English Surgeon   Aussie TVRip   Wide Screen preview 3
Hot Docs   The English Surgeon   Aussie TVRip   Wide Screen preview 4

related torrents

Torrent name

health leech seeds Size
 


comments (0)

Main Menu