Movies - Other

MALEFIQUES 2009 CD2 FRENCH DVDRiP XViD up mavric "VFF" ( Net)

  • Download 5x Faster
  • Download torrent
  • Direct Download
  • Rate this torrent +  |  -
MALEFIQUES 2009 CD2 FRENCH DVDRiP XViD up mavric "VFF" ( Net)

Free and Direct Download with Usenet.nl 300GB+ free


Torrent info

Name:MALEFIQUES 2009 CD2 FRENCH DVDRiP XViD up mavric "VFF" ( Net)

Total Size: 661.58 MB

Magnet: Magnet Link

Seeds: 0

Leechers: 0

Stream: Watch Online @ Movie4u

Last Updated: 2011-03-20 19:41:06 (Update Now)

Torrent added: 2009-08-28 22:39:52





Torrent Files List


MALEFIQUES.2009.CD2.FRENCH.DVDRiP.XViD-ARTEFAC.avi (Size: 661.58 MB) (Files: 2)

 MALEFIQUES.2009.CD2.FRENCH.DVDRiP.XViD-ARTEFAC.avi

661.56 MB

 M.ATC.nfo

13.11 KB
 

Announce URL:

Torrent description

***ATTENTION***

Pour télécharger ce torrent, vous devez posséder un compte sur Quebec-Team ! et ensuite entrez votre passkey manuellement (http://www.quebec-team.net/announce.php?passkeyici) OU re-télécharger le torrent via le site. Merci!

***ATTENTION***

Lien d'origine : http://www.quebec-team.net/torrents/Films--DVD-RIP/torrent/MALEFIQUES-2009-CD2-FRENCH-DVDRiP-XViD--up-mavric-_VFF_.html

[taille=24][aligner=centre]MALEFIQUES 2009 CD2 FRENCH DVDRiP XViD-ARTEFAC "VFF"[/aligner][/taille]




[aligner=centre]MALEFIQUES 2009 CD2 FRENCH DVDRiP XViD  up mavric "VFF" ( Net) preview 0[/aligner]

[aligner=centre]MALEFIQUES 2009 CD2 FRENCH DVDRiP XViD  up mavric "VFF" ( Net) preview 1[/aligner]

[aligner=centre]Après une nuit agitée, le docteur Michael Foster se réveille pour réaliser que sa femme a disparu.
Alors que la police locale ne le prend pas au sérieux et refuse de l'aider dans ses recherches, Michel reste seul
avec ses visons de la nuit précédente : des images désarmantes de sa femme et de sa fille, ainsi que les visions
d'un cercle de sang et d'un corbeau agonisant. Alors qu'il apprend de la bouche d'une institutrice de sa fille
que sa femme est peut-être impliquée dans une société secrète de sorcière dont le but est de dominer le monde,
Michael réalisera que celle-ci a pour membre nombre de personnalités haut placées et réalisera qu'il ne peut se
fier à personne...




[/aligner]


[aligner=centre]MALEFIQUES 2009 CD2 FRENCH DVDRiP XViD  up mavric "VFF" ( Net) preview 2[/aligner]


[aligner=centre]
Origine du film : USA
Titre original : The Gathering
Réalisateur : Bill Eagles
Acteurs : Jamie-lynn Sigler Peter Fonda Peter Gallagher
Genre : Fantastique / Thriller
Durée : 1h 22min
Date de sortie : 2009
Distribué par : Sony

General
Complete name : C:UsersmavricDownloadsMALEFIQUES.2009.CD2.FRENCH.DVDRiP.XViD-ARTEFACM.ATC.nfo
File size : 13.1 KiB

General
Complete name : C:UsersmavricDownloadsMALEFIQUES.2009.CD2.FRENCH.DVDRiP.XViD-ARTEFACMALEFIQUES.2009.CD2.FRENCH.DVDRiP.XViD-ARTEFAC.avi
Format : AVI
Format/Info : Audio Video Interleave
File size : 662 MiB
Duration : 1h 22mn
Overall bit rate : 1 116 Kbps
Writing application : VirtualDubMod 1.5.10.2 (build 2540/release)
Writing library : VirtualDubMod build 2540/release

Video
ID : 0
Format : MPEG-4 Visual
Format profile : [email protected]
Format settings, BVOP : Yes
Format settings, QPel : No
Format settings, GMC : No warppoints
Format settings, Matrix : Default (H.263)
Muxing mode : Packed bitstream
Codec ID : XVID
Codec ID/Hint : XviD
Duration : 1h 22mn
Bit rate : 978 Kbps
Width : 640 pixels
Height : 352 pixels
Display aspect ratio : 16:9
Frame rate : 25.000 fps
Resolution : 24 bits
Colorimetry : 4:2:0
Scan type : Progressive
Bits/(Pixel*Frame) : 0.174
Stream size : 580 MiB (88%)
Writing library : XviD 1.0.3 (UTC 2004-12-20)

Audio
ID : 1
Format : MPEG Audio
Format version : Version 1
Format profile : Layer 3
Codec ID : 55
Codec ID/Hint : MP3
Duration : 1h 22mn
Bit rate mode : Constant
Bit rate : 128 Kbps
Channel(s) : 2 channels
Sampling rate : 48.0 KHz
Resolution : 16 bits
Stream size : 75.9 MiB (11%)
Alignment : Aligned on interleaves
Interleave, duration : 40 ms (1.00 video frame)
Interleave, preload duration : 504 ms



[/aligner]

related torrents

Torrent name

health leech seeds Size
 

comments (0)

Main Menu