Movies - Other

Le Prisonnier DVD 6 ( Net)

  • Download 5x Faster
  • Download torrent
  • Direct Download
  • Rate this torrent +  |  -
Le Prisonnier DVD 6 ( Net)

Anonymous and free Direct Download 300GB+


Torrent info

Name:Le Prisonnier DVD 6 ( Net)

Total Size: 4.37 GB

Magnet: Magnet Link

Seeds: 0

Leechers: 0

Stream: Watch Online @ Movie4u

Last Updated: 2010-09-16 14:26:43 (Update Now)

Torrent added: 2009-08-28 22:05:53



VPN For Torrents

Torrent Files List


Cover 1.JPG (Size: 4.37 GB) (Files: 3)

 Cover 1.JPG

1.03 MB

 Cover 2.JPG

1.20 MB

 Le prisonnier DVD 6.iso

4.37 GB
 

Announce URL: http://www.quebec-team.net/announce.php

Torrent description

***ATTENTION***

Pour télécharger ce torrent, vous devez posséder un compte sur Quebec-Team ! et ensuite entrez votre passkey manuellement (http://www.quebec-team.net/announce.php?passkeyici) OU re-télécharger le torrent via le site. Merci!

***ATTENTION***

Lien d'origine : http://www.quebec-team.net/torrents/Films-DVD-R-PAL/torrent/Le-Prisonnier-DVD-6.html

LE PRISONNIER - DVD 6 sur 6
[img=Le Prisonnier DVD 6 ( Net) preview 0]


Le Prisonnier (The Prisoner) est une série télévisée britannique en 17 épisodes de 48 minutes, créée par George Markstein et Patrick McGoohan et diffusée entre le 1er octobre 1967 et le 4 février 1968 sur le réseau ITV.

SYNOPSIS

Un agent secret britannique démissionne brutalement de son poste et rentre chez lui au volant de sa Lotus Seven.
Alors qu'il prépare ses valises dans son appartement londonien, un gaz anesthésiant est diffusé dans la pièce.
À son réveil, il se retrouve au Village, un lieu idyllique et esthétique habité par une communauté de villageois tous vêtus d'habits colorés et d'un badge numéroté les identifiant. Certains sont des prisonniers, les autres leurs geôliers, et ne peuvent être différenciés les uns des autres.
Il sera désormais le Numéro 6 et n'aura de cesse de tenter de s'évader du Village.

Plus d'info sur la série Le prisonnier sur Wikipedia France

INFORMATIONS SUR LE DVD

Langue : Français, Anglais
General
DVD Video (Menu): 12.0 KiB
1 Video stream: MPEG Video
1 Text stream: RLE
Video
720*576 (4/3), at 25,000 fps, MPEG Video (PAL) (Version 2)
Text
RLE

NFO

General
Complete name : /Volumes/Le prisonnier DVD 6/VIDEO_TS/VIDEO_TS.BUP
Format : DVD Video
Format profile : Menu
File size : 18.0 KiB

Video
ID : 0xE0
Format : MPEG Video
Format version : Version 2
Bit rate mode : Variable
Width : 720 pixels
Height : 576 pixels
Display aspect ratio : 4/3
Frame rate : 25.000 fps
Standard : PAL

Text
Format : RLE
Format/Info : Run-length encoding
Resolution : 2 bits

General
Complete name : /Volumes/Le prisonnier DVD 6/VIDEO_TS/VIDEO_TS.IFO
Format : DVD Video
Format profile : Menu
File size : 18.0 KiB

Video
ID : 0xE0
Format : MPEG Video
Format version : Version 2
Bit rate mode : Variable
Width : 720 pixels
Height : 576 pixels
Display aspect ratio : 4/3
Frame rate : 25.000 fps
Standard : PAL

Text
Format : RLE
Format/Info : Run-length encoding
Resolution : 2 bits

General
Complete name : /Volumes/Le prisonnier DVD 6/VIDEO_TS/VIDEO_TS.VOB
Format : MPEG-PS
File size : 120 KiB

Video
ID : 224 (0xE0)
Format : MPEG Video
Format version : Version 2
Format profile : [email protected]
Format settings, Matrix : Default
Bit rate mode : Constant
Bit rate : 9 000 Kbps
Width : 720 pixels
Height : 576 pixels
Display aspect ratio : 4/3
Frame rate : 25.000 fps
Standard : PAL
Colorimetry : 4:2:0
Scan type : Progressive
Scan order : Top Field First
Bits/(Pixel*Frame) : 0.868

Menu
Format : DVD-Video

General
Complete name : /Volumes/Le prisonnier DVD 6/VIDEO_TS/VTS_01_0.BUP
Format : DVD Video
Format profile : Program
File size : 62.0 KiB

Video
ID : 0xE0
Format : MPEG Video
Format version : Version 2
Bit rate mode : Variable
Width : 720 pixels
Height : 576 pixels
Display aspect ratio : 4/3
Frame rate : 25.000 fps
Standard : PAL

Audio #1
ID : 0x80
Format : AC-3
Format/Info : Audio Coding 3
Channel(s) : 2 channels
Sampling rate : 48.0 KHz
Language : French

Audio #2
ID : 0x81
Format : AC-3
Format/Info : Audio Coding 3
Channel(s) : 2 channels
Sampling rate : 48.0 KHz
Language : English

Text #1
ID : 0x20
Format : RLE
Format/Info : Run-length encoding
Resolution : 2 bits
Language : French

Text #2
ID : 0x20
Format : RLE
Format/Info : Run-length encoding
Resolution : 2 bits
Language : French

Menu #1
List (Audio) : 0 / 1
List (Subtitles 4/3) : 0 / 1
List (Subtitles Wide) : 0 / 0
List (Subtitles Letterbox) : 0 / 0
List (Subtitles Pan&Scan) : 0 / 0

Menu #2
List (Audio) : 0 / 1
List (Subtitles 4/3) : 0 / 1
List (Subtitles Wide) : 0 / 0
List (Subtitles Letterbox) : 0 / 0
List (Subtitles Pan&Scan) : 0 / 0

Menu #3

General
Complete name : /Volumes/Le prisonnier DVD 6/VIDEO_TS/VTS_01_0.IFO
Format : DVD Video
Format profile : Program
File size : 62.0 KiB

Video
ID : 0xE0
Format : MPEG Video
Format version : Version 2
Bit rate mode : Variable
Width : 720 pixels
Height : 576 pixels
Display aspect ratio : 4/3
Frame rate : 25.000 fps
Standard : PAL

Audio #1
ID : 0x80
Format : AC-3
Format/Info : Audio Coding 3
Channel(s) : 2 channels
Sampling rate : 48.0 KHz
Language : French

Audio #2
ID : 0x81
Format : AC-3
Format/Info : Audio Coding 3
Channel(s) : 2 channels
Sampling rate : 48.0 KHz
Language : English

Text #1
ID : 0x20
Format : RLE
Format/Info : Run-length encoding
Resolution : 2 bits
Language : French

Text #2
ID : 0x20
Format : RLE
Format/Info : Run-length encoding
Resolution : 2 bits
Language : French

Menu #1
List (Audio) : 0 / 1
List (Subtitles 4/3) : 0 / 1
List (Subtitles Wide) : 0 / 0
List (Subtitles Letterbox) : 0 / 0
List (Subtitles Pan&Scan) : 0 / 0

Menu #2
List (Audio) : 0 / 1
List (Subtitles 4/3) : 0 / 1
List (Subtitles Wide) : 0 / 0
List (Subtitles Letterbox) : 0 / 0
List (Subtitles Pan&Scan) : 0 / 0

Menu #3

General
Complete name : /Volumes/Le prisonnier DVD 6/VIDEO_TS/VTS_01_0.VOB
Format : MPEG-PS
File size : 68.6 MiB
Duration : 29s 843ms
Overall bit rate : 19.3 Mbps

Video
ID : 224 (0xE0)
Format : MPEG Video
Format version : Version 2
Format profile : [email protected]
Format settings, Matrix : Default
Duration : 29s 840ms
Bit rate mode : Constant
Bit rate : 18.3 Mbps
Nominal bit rate : 8 000 Kbps
Width : 720 pixels
Height : 576 pixels
Display aspect ratio : 4/3
Frame rate : 25.000 fps
Standard : PAL
Colorimetry : 4:2:0
Scan type : Interlaced
Scan order : Top Field First
Bits/(Pixel*Frame) : 1.769

Audio
ID : 128 (0x80)
Format : AC-3
Format/Info : Audio Coding 3
Duration : 29s 843ms
Bit rate mode : Constant
Bit rate : 192 Kbps
Channel(s) : 2 channels
Channel positions : L R
Sampling rate : 48.0 KHz
Stream size : 699 KiB (1%)

Text
ID : 32 (0x20)
Format : RLE
Format/Info : Run-length encoding

Menu
Format : DVD-Video

General
Complete name : /Volumes/Le prisonnier DVD 6/VIDEO_TS/VTS_01_1.VOB
Format : MPEG-PS
File size : 1 024 MiB
Duration : 42mn 46s
Overall bit rate : 3 346 Kbps

Video
ID : 224 (0xE0)
Format : MPEG Video
Format version : Version 2
Format profile : [email protected]
Format settings, Matrix : Default
Duration : 42mn 46s
Bit rate mode : Variable
Bit rate : 2 830 Kbps
Nominal bit rate : 8 500 Kbps
Width : 720 pixels
Height : 576 pixels
Display aspect ratio : 4/3
Frame rate : 25.000 fps
Standard : PAL
Colorimetry : 4:2:0
Scan type : Interlaced
Scan order : Top Field First
Bits/(Pixel*Frame) : 0.273
Stream size : 866 MiB (85%)

Audio #1
ID : 128 (0x80)
Format : AC-3
Format/Info : Audio Coding 3
Duration : 42mn 46s
Bit rate mode : Constant
Bit rate : 192 Kbps
Channel(s) : 2 channels
Channel positions : L R
Sampling rate : 48.0 KHz
Stream size : 58.7 MiB (6%)

Audio #2
ID : 129 (0x81)
Format : AC-3
Format/Info : Audio Coding 3
Duration : 42mn 46s
Bit rate mode : Constant
Bit rate : 192 Kbps
Channel(s) : 2 channels
Channel positions : L R
Sampling rate : 48.0 KHz
Stream size : 58.7 MiB (6%)

Text
ID : 32 (0x20)
Format : RLE
Format/Info : Run-length encoding

Menu
Format : DVD-Video

General
Complete name : /Volumes/Le prisonnier DVD 6/VIDEO_TS/VTS_01_2.VOB
Format : MPEG-PS
File size : 1 024 MiB

Video
ID : 224 (0xE0)
Format : MPEG Video
Format version : Version 2
Format profile : [email protected]
Format settings, Matrix : Default
Bit rate mode : Variable
Bit rate : 8 500 Kbps
Width : 720 pixels
Height : 576 pixels
Display aspect ratio : 4/3
Frame rate : 25.000 fps
Standard : PAL
Colorimetry : 4:2:0
Scan type : Interlaced
Scan order : Top Field First
Bits/(Pixel*Frame) : 0.820

Audio #1
ID : 128 (0x80)
Format : AC-3
Format/Info : Audio Coding 3
Bit rate mode : Constant
Bit rate : 192 Kbps
Channel(s) : 2 channels
Channel positions : L R
Sampling rate : 48.0 KHz
Video delay : -360ms

Audio #2
ID : 129 (0x81)
Format : AC-3
Format/Info : Audio Coding 3
Bit rate mode : Constant
Bit rate : 192 Kbps
Channel(s) : 2 channels
Channel positions : L R
Sampling rate : 48.0 KHz
Video delay : -360ms

Text
ID : 32 (0x20)
Format : RLE
Format/Info : Run-length encoding
Video delay : -360ms

Menu
Format : DVD-Video

General
Complete name : /Volumes/Le prisonnier DVD 6/VIDEO_TS/VTS_01_3.VOB
Format : MPEG-PS
File size : 333 MiB
Duration : 12mn 45s
Overall bit rate : 3 646 Kbps

Video
ID : 224 (0xE0)
Format : MPEG Video
Format version : Version 2
Format profile : [email protected]
Format settings, Matrix : Default
Duration : 12mn 45s
Bit rate mode : Variable
Bit rate : 3 117 Kbps
Nominal bit rate : 8 500 Kbps
Width : 720 pixels
Height : 576 pixels
Display aspect ratio : 4/3
Frame rate : 25.000 fps
Standard : PAL
Colorimetry : 4:2:0
Scan type : Interlaced
Scan order : Top Field First
Bits/(Pixel*Frame) : 0.301

Audio #1
ID : 128 (0x80)
Format : AC-3
Format/Info : Audio Coding 3
Duration : 12mn 45s
Bit rate mode : Constant
Bit rate : 192 Kbps
Channel(s) : 2 channels
Channel positions : L R
Sampling rate : 48.0 KHz
Video delay : -496ms
Stream size : 17.5 MiB (5%)

Audio #2
ID : 129 (0x81)
Format : AC-3
Format/Info : Audio Coding 3
Duration : 12mn 45s
Bit rate mode : Constant
Bit rate : 192 Kbps
Channel(s) : 2 channels
Channel positions : L R
Sampling rate : 48.0 KHz
Video delay : -496ms
Stream size : 17.5 MiB (5%)

Menu
Format : DVD-Video

General
Complete name : /Volumes/Le prisonnier DVD 6/VIDEO_TS/VTS_02_0.BUP
Format : DVD Video
Format profile : Program
File size : 50.0 KiB

Video
ID : 0xE0
Format : MPEG Video
Format version : Version 2
Bit rate mode : Variable
Width : 720 pixels
Height : 576 pixels
Display aspect ratio : 4/3
Frame rate : 25.000 fps
Standard : PAL

Audio
ID : 0x80
Format : AC-3
Format/Info : Audio Coding 3
Channel(s) : 2 channels
Sampling rate : 48.0 KHz
Language : French

Menu #1
List (Audio) : 0

Menu #2
List (Audio) : 0

Menu #3

General
Complete name : /Volumes/Le prisonnier DVD 6/VIDEO_TS/VTS_02_0.IFO
Format : DVD Video
Format profile : Program
File size : 50.0 KiB

Video
ID : 0xE0
Format : MPEG Video
Format version : Version 2
Bit rate mode : Variable
Width : 720 pixels
Height : 576 pixels
Display aspect ratio : 4/3
Frame rate : 25.000 fps
Standard : PAL

Audio
ID : 0x80
Format : AC-3
Format/Info : Audio Coding 3
Channel(s) : 2 channels
Sampling rate : 48.0 KHz
Language : French

Menu #1
List (Audio) : 0

Menu #2
List (Audio) : 0

Menu #3

General
Complete name : /Volumes/Le prisonnier DVD 6/VIDEO_TS/VTS_02_0.VOB
Format : MPEG-PS
File size : 18.6 MiB

Video
ID : 224 (0xE0)
Format : MPEG Video
Format version : Version 2
Format profile : [email protected]
Format settings, Matrix : Default
Bit rate mode : Constant
Bit rate : 9 000 Kbps
Width : 720 pixels
Height : 576 pixels
Display aspect ratio : 4/3
Frame rate : 25.000 fps
Standard : PAL
Colorimetry : 4:2:0
Scan type : Progressive
Scan order : Top Field First
Bits/(Pixel*Frame) : 0.868

Audio
ID : 128 (0x80)
Format : AC-3
Format/Info : Audio Coding 3
Bit rate mode : Constant
Bit rate : 192 Kbps
Channel(s) : 2 channels
Channel positions : L R
Sampling rate : 48.0 KHz

Text
ID : 32 (0x20)
Format : RLE
Format/Info : Run-length encoding

Menu
Format : DVD-Video

General
Complete name : /Volumes/Le prisonnier DVD 6/VIDEO_TS/VTS_02_1.VOB
Format : MPEG-PS
File size : 252 MiB
Duration : 7s 239ms
Overall bit rate : 292 Mbps

Video
ID : 224 (0xE0)
Format : MPEG Video
Format version : Version 2
Format profile : [email protected]
Format settings, Matrix : Default
Duration : 40ms
Bit rate mode : Constant
Bit rate : 280 Mbps
Width : 720 pixels
Height : 576 pixels
Display aspect ratio : 4/3
Frame rate : 25.000 fps
Standard : PAL
Colorimetry : 4:2:0
Bits/(Pixel*Frame) : 27.024
Stream size : 1.34 MiB (1%)

Audio
ID : 128 (0x80)
Format : AC-3
Format/Info : Audio Coding 3
Duration : 7s 239ms
Bit rate mode : Constant
Bit rate : 192 Kbps
Channel(s) : 2 channels
Channel positions : L R
Sampling rate : 48.0 KHz
Video delay : 36ms
Stream size : 170 KiB (0%)

Menu
Format : DVD-Video

General
Complete name : /Volumes/Le prisonnier DVD 6/VIDEO_TS/VTS_03_0.BUP
Format : DVD Video
Format profile : Program
File size : 30.0 KiB

Video
ID : 0xE0
Format : MPEG Video
Format version : Version 2
Bit rate mode : Variable
Width : 720 pixels
Height : 576 pixels
Display aspect ratio : 4/3
Frame rate : 25.000 fps
Standard : PAL

Audio
ID : 0x80
Format : AC-3
Format/Info : Audio Coding 3
Channel(s) : 2 channels
Sampling rate : 48.0 KHz
Language : French

Text
Format : RLE
Format/Info : Run-length encoding
Resolution : 2 bits
Language : French

Menu #1
List (Audio) : 0

Menu #2
List (Audio) : 0

Menu #3

General
Complete name : /Volumes/Le prisonnier DVD 6/VIDEO_TS/VTS_03_0.IFO
Format : DVD Video
Format profile : Program
File size : 30.0 KiB

Video
ID : 0xE0
Format : MPEG Video
Format version : Version 2
Bit rate mode : Variable
Width : 720 pixels
Height : 576 pixels
Display aspect ratio : 4/3
Frame rate : 25.000 fps
Standard : PAL

Audio
ID : 0x80
Format : AC-3
Format/Info : Audio Coding 3
Channel(s) : 2 channels
Sampling rate : 48.0 KHz
Language : French

Text
Format : RLE
Format/Info : Run-length encoding
Resolution : 2 bits
Language : French

Menu #1
List (Audio) : 0

Menu #2
List (Audio) : 0

Menu #3

General
Complete name : /Volumes/Le prisonnier DVD 6/VIDEO_TS/VTS_03_0.VOB
Format : MPEG-PS
File size : 2.51 MiB

Video
ID : 224 (0xE0)
Format : MPEG Video
Format version : Version 2
Format profile : [email protected]
Format settings, Matrix : Default
Bit rate mode : Constant
Bit rate : 9 000 Kbps
Width : 720 pixels
Height : 576 pixels
Display aspect ratio : 4/3
Frame rate : 25.000 fps
Standard : PAL
Colorimetry : 4:2:0
Scan type : Progressive
Scan order : Top Field First
Bits/(Pixel*Frame) : 0.868

Audio
ID : 128 (0x80)
Format : AC-3
Format/Info : Audio Coding 3
Bit rate mode : Constant
Bit rate : 192 Kbps
Channel(s) : 2 channels
Channel positions : L R
Sampling rate : 48.0 KHz
Video delay : 52ms

Text
ID : 32 (0x20)
Format : RLE
Format/Info : Run-length encoding
Video delay : 52ms

Menu
Format : DVD-Video

General
Complete name : /Volumes/Le prisonnier DVD 6/VIDEO_TS/VTS_03_1.VOB
Format : MPEG-PS
File size : 5.24 MiB
Duration : 8s 288ms
Overall bit rate : 5 300 Kbps

Video
ID : 224 (0xE0)
Format : MPEG Video
Format version : Version 2
Format profile : [email protected]
Format settings, Matrix : Default
Duration : 40ms
Bit rate mode : Constant
Bit rate : 4 897 Kbps
Width : 720 pixels
Height : 576 pixels
Display aspect ratio : 4/3
Frame rate : 25.000 fps
Standard : PAL
Colorimetry : 4:2:0
Bits/(Pixel*Frame) : 0.472
Stream size : 23.9 KiB (0%)

Audio
ID : 128 (0x80)
Format : AC-3
Format/Info : Audio Coding 3
Duration : 8s 288ms
Bit rate mode : Constant
Bit rate : 192 Kbps
Channel(s) : 2 channels
Channel positions : L R
Sampling rate : 48.0 KHz
Video delay : 13ms
Stream size : 194 KiB (4%)

Menu
Format : DVD-Video

General
Complete name : /Volumes/Le prisonnier DVD 6/VIDEO_TS/VTS_04_0.BUP
Format : DVD Video
Format profile : Program
File size : 12.0 KiB

Video
ID : 0xE0
Format : MPEG Video
Format version : Version 2
Bit rate mode : Variable
Width : 720 pixels
Height : 576 pixels
Display aspect ratio : 4/3
Frame rate : 25.000 fps
Standard : PAL

Audio
ID : 0x80
Format : AC-3
Format/Info : Audio Coding 3
Channel(s) : 2 channels
Sampling rate : 48.0 KHz
Language : French

Menu
List (Audio) : 0

General
Complete name : /Volumes/Le prisonnier DVD 6/VIDEO_TS/VTS_04_0.IFO
Format : DVD Video
Format profile : Program
File size : 12.0 KiB

Video
ID : 0xE0
Format : MPEG Video
Format version : Version 2
Bit rate mode : Variable
Width : 720 pixels
Height : 576 pixels
Display aspect ratio : 4/3
Frame rate : 25.000 fps
Standard : PAL

Audio
ID : 0x80
Format : AC-3
Format/Info : Audio Coding 3
Channel(s) : 2 channels
Sampling rate : 48.0 KHz
Language : French

Menu
List (Audio) : 0

General
Complete name : /Volumes/Le prisonnier DVD 6/VIDEO_TS/VTS_04_1.VOB
Format : MPEG-PS
File size : 16.5 MiB
Duration : 33s 960ms
Overall bit rate : 4 078 Kbps

Video
ID : 224 (0xE0)
Format : MPEG Video
Format version : Version 2
Format profile : [email protected]
Format settings, Matrix : Default
Duration : 33s 960ms
Bit rate mode : Constant
Bit rate : 3 724 Kbps
Nominal bit rate : 6 000 Kbps
Width : 720 pixels
Height : 576 pixels
Display aspect ratio : 4/3
Frame rate : 25.000 fps
Standard : PAL
Colorimetry : 4:2:0
Scan type : Interlaced
Scan order : Top Field First
Bits/(Pixel*Frame) : 0.359
Stream size : 15.1 MiB (91%)

Audio
ID : 128 (0x80)
Format : AC-3
Format/Info : Audio Coding 3
Duration : 33s 920ms
Bit rate mode : Constant
Bit rate : 192 Kbps
Channel(s) : 2 channels
Channel positions : L R
Sampling rate : 48.0 KHz
Stream size : 795 KiB (5%)

Menu
Format : DVD-Video

General
Complete name : /Volumes/Le prisonnier DVD 6/VIDEO_TS/VTS_05_0.BUP
Format : DVD Video
Format profile : Program
File size : 44.0 KiB

Video
ID : 0xE0
Format : MPEG Video
Format version : Version 2
Bit rate mode : Variable
Width : 720 pixels
Height : 576 pixels
Display aspect ratio : 4/3
Frame rate : 25.000 fps
Standard : PAL

Audio
ID : 0x80
Format : AC-3
Format/Info : Audio Coding 3
Channel(s) : 2 channels
Sampling rate : 48.0 KHz
Language : French

Text
Format : RLE
Format/Info : Run-length encoding
Resolution : 2 bits
Language : French

Menu #1
List (Audio) : 0

Menu #2
List (Audio) : 0

Menu #3

General
Complete name : /Volumes/Le prisonnier DVD 6/VIDEO_TS/VTS_05_0.IFO
Format : DVD Video
Format profile : Program
File size : 44.0 KiB

Video
ID : 0xE0
Format : MPEG Video
Format version : Version 2
Bit rate mode : Variable
Width : 720 pixels
Height : 576 pixels
Display aspect ratio : 4/3
Frame rate : 25.000 fps
Standard : PAL

Audio
ID : 0x80
Format : AC-3
Format/Info : Audio Coding 3
Channel(s) : 2 channels
Sampling rate : 48.0 KHz
Language : French

Text
Format : RLE
Format/Info : Run-length encoding
Resolution : 2 bits
Language : French

Menu #1
List (Audio) : 0

Menu #2
List (Audio) : 0

Menu #3

General
Complete name : /Volumes/Le prisonnier DVD 6/VIDEO_TS/VTS_05_0.VOB
Format : MPEG-PS
File size : 1.89 MiB

Video
ID : 224 (0xE0)
Format : MPEG Video
Format version : Version 2
Format profile : [email protected]
Format settings, Matrix : Default
Bit rate mode : Constant
Bit rate : 9 000 Kbps
Width : 720 pixels
Height : 576 pixels
Display aspect ratio : 4/3
Frame rate : 25.000 fps
Standard : PAL
Colorimetry : 4:2:0
Scan type : Progressive
Scan order : Top Field First
Bits/(Pixel*Frame) : 0.868

Audio
ID : 128 (0x80)
Format : AC-3
Format/Info : Audio Coding 3
Bit rate mode : Constant
Bit rate : 192 Kbps
Channel(s) : 2 channels
Channel positions : L R
Sampling rate : 48.0 KHz

Text
ID : 32 (0x20)
Format : RLE
Format/Info : Run-length encoding

Menu
Format : DVD-Video

General
Complete name : /Volumes/Le prisonnier DVD 6/VIDEO_TS/VTS_05_1.VOB
Format : MPEG-PS
File size : 1 024 MiB
Duration : 2mn 17s
Overall bit rate : 62.7 Mbps

Video
ID : 224 (0xE0)
Format : MPEG Video
Format version : Version 2
Format profile : [email protected]
Format settings, Matrix : Default
Duration : 2mn 17s
Bit rate mode : Variable
Bit rate : 60.0 Mbps
Width : 720 pixels
Height : 576 pixels
Display aspect ratio : 4/3
Frame rate : 25.000 fps
Standard : PAL
Colorimetry : 4:2:0
Bits/(Pixel*Frame) : 5.786
Stream size : 980 MiB (96%)

Audio
ID : 128 (0x80)
Format : AC-3
Format/Info : Audio Coding 3
Duration : 2mn 17s
Bit rate mode : Constant
Bit rate : 192 Kbps
Channel(s) : 2 channels
Channel positions : L R
Sampling rate : 48.0 KHz
Video delay : -26ms
Stream size : 3.14 MiB (0%)

Menu
Format : DVD-Video

General
Complete name : /Volumes/Le prisonnier DVD 6/VIDEO_TS/VTS_05_2.VOB
Format : MPEG-PS
File size : 572 MiB
Duration : 10mn 34s
Overall bit rate : 7 558 Kbps

Video
ID : 224 (0xE0)
Format : MPEG Video
Format version : Version 2
Format profile : [email protected]
Format settings, Matrix : Default
Duration : 10mn 34s
Bit rate mode : Constant
Bit rate : 7 066 Kbps
Nominal bit rate : 8 000 Kbps
Width : 720 pixels
Height : 576 pixels
Display aspect ratio : 4/3
Frame rate : 25.000 fps
Standard : PAL
Colorimetry : 4:2:0
Scan type : Interlaced
Scan order : Top Field First
Bits/(Pixel*Frame) : 0.682
Stream size : 535 MiB (93%)

Audio
ID : 128 (0x80)
Format : AC-3
Format/Info : Audio Coding 3
Duration : 10mn 34s
Bit rate mode : Constant
Bit rate : 192 Kbps
Channel(s) : 2 channels
Channel positions : L R
Sampling rate : 48.0 KHz
Video delay : -192ms
Stream size : 14.5 MiB (3%)

Menu
Format : DVD-Video

General
Complete name : /Volumes/Le prisonnier DVD 6/VIDEO_TS/VTS_06_0.BUP
Format : DVD Video
Format profile : Program
File size : 18.0 KiB

Video
ID : 0xE0
Format : MPEG Video
Format version : Version 2
Bit rate mode : Variable
Width : 720 pixels
Height : 576 pixels
Display aspect ratio : 4/3
Frame rate : 25.000 fps
Standard : PAL

Audio
ID : 0x80
Format : AC-3
Format/Info : Audio Coding 3
Channel(s) : 2 channels
Sampling rate : 48.0 KHz
Language : French

Text
ID : 0x20
Format : RLE
Format/Info : Run-length encoding
Resolution : 2 bits

Menu #1
List (Audio) : 0
List (Subtitles 4/3) : 0
List (Subtitles Wide) : 0
List (Subtitles Letterbox) : 0
List (Subtitles Pan&Scan) : 0

Menu #2
List (Audio) : 0
List (Subtitles 4/3) : 0
List (Subtitles Wide) : 0
List (Subtitles Letterbox) : 0
List (Subtitles Pan&Scan) : 0

Menu #3

General
Complete name : /Volumes/Le prisonnier DVD 6/VIDEO_TS/VTS_06_0.IFO
Format : DVD Video
Format profile : Program
File size : 18.0 KiB

Video
ID : 0xE0
Format : MPEG Video
Format version : Version 2
Bit rate mode : Variable
Width : 720 pixels
Height : 576 pixels
Display aspect ratio : 4/3
Frame rate : 25.000 fps
Standard : PAL

Audio
ID : 0x80
Format : AC-3
Format/Info : Audio Coding 3
Channel(s) : 2 channels
Sampling rate : 48.0 KHz
Language : French

Text
ID : 0x20
Format : RLE
Format/Info : Run-length encoding
Resolution : 2 bits

Menu #1
List (Audio) : 0
List (Subtitles 4/3) : 0
List (Subtitles Wide) : 0
List (Subtitles Letterbox) : 0
List (Subtitles Pan&Scan) : 0

Menu #2
List (Audio) : 0
List (Subtitles 4/3) : 0
List (Subtitles Wide) : 0
List (Subtitles Letterbox) : 0
List (Subtitles Pan&Scan) : 0

Menu #3

General
Complete name : /Volumes/Le prisonnier DVD 6/VIDEO_TS/VTS_06_0.VOB
Format : MPEG-PS
File size : 1.71 MiB

Video
ID : 224 (0xE0)
Format : MPEG Video
Format version : Version 2
Format profile : [email protected]
Format settings, Matrix : Default
Bit rate mode : Constant
Bit rate : 9 000 Kbps
Width : 720 pixels
Height : 576 pixels
Display aspect ratio : 4/3
Frame rate : 25.000 fps
Standard : PAL
Colorimetry : 4:2:0
Scan type : Progressive
Scan order : Top Field First
Bits/(Pixel*Frame) : 0.868

Audio
ID : 128 (0x80)
Format : AC-3
Format/Info : Audio Coding 3
Bit rate mode : Constant
Bit rate : 192 Kbps
Channel(s) : 2 channels
Channel positions : L R
Sampling rate : 48.0 KHz

Text
ID : 32 (0x20)
Format : RLE
Format/Info : Run-length encoding

Menu
Format : DVD-Video

General
Complete name : /Volumes/Le prisonnier DVD 6/VIDEO_TS/VTS_06_1.VOB
Format : MPEG-PS
File size : 114 MiB
Duration : 58s 107ms
Overall bit rate : 16.4 Mbps

Video
ID : 224 (0xE0)
Format : MPEG Video
Format version : Version 2
Format profile : [email protected]
Format settings, Matrix : Default
Duration : 58s 107ms
Bit rate mode : Constant
Bit rate : 15.6 Mbps
Nominal bit rate : 8 000 Kbps
Width : 720 pixels
Height : 576 pixels
Display aspect ratio : 4/3
Frame rate : 25.000 fps
Standard : PAL
Colorimetry : 4:2:0
Scan type : Interlaced
Scan order : Top Field First
Bits/(Pixel*Frame) : 1.503
Stream size : 108 MiB (95%)

Audio
ID : 128 (0x80)
Format : AC-3
Format/Info : Audio Coding 3
Duration : 58s 3ms
Bit rate mode : Constant
Bit rate : 192 Kbps
Channel(s) : 2 channels
Channel positions : L R
Sampling rate : 48.0 KHz
Stream size : 1.33 MiB (1%)

Text
ID : 32 (0x20)
Format : RLE
Format/Info : Run-length encoding

Menu
Format : DVD-Video

General
Complete name : /Volumes/Le prisonnier DVD 6/VIDEO_TS/VTS_07_0.BUP
Format : DVD Video
Format profile : Program
File size : 22.0 KiB

Video
ID : 0xE0
Format : MPEG Video
Format version : Version 2
Bit rate mode : Variable
Width : 720 pixels
Height : 576 pixels
Display aspect ratio : 4/3
Frame rate : 25.000 fps
Standard : PAL

Audio
ID : 0x80
Format : AC-3
Format/Info : Audio Coding 3
Channel(s) : 2 channels
Sampling rate : 48.0 KHz
Language : French

Text
Format : RLE
Format/Info : Run-length encoding
Resolution : 2 bits
Language : French

Menu #1
List (Audio) : 0

Menu #2
List (Audio) : 0

Menu #3

General
Complete name : /Volumes/Le prisonnier DVD 6/VIDEO_TS/VTS_07_0.IFO
Format : DVD Video
Format profile : Program
File size : 22.0 KiB

Video
ID : 0xE0
Format : MPEG Video
Format version : Version 2
Bit rate mode : Variable
Width : 720 pixels
Height : 576 pixels
Display aspect ratio : 4/3
Frame rate : 25.000 fps
Standard : PAL

Audio
ID : 0x80
Format : AC-3
Format/Info : Audio Coding 3
Channel(s) : 2 channels
Sampling rate : 48.0 KHz
Language : French

Text
Format : RLE
Format/Info : Run-length encoding
Resolution : 2 bits
Language : French

Menu #1
List (Audio) : 0

Menu #2
List (Audio) : 0

Menu #3

General
Complete name : /Volumes/Le prisonnier DVD 6/VIDEO_TS/VTS_07_0.VOB
Format : MPEG-PS
File size : 2.24 MiB

Video
ID : 224 (0xE0)
Format : MPEG Video
Format version : Version 2
Format profile : [email protected]
Format settings, Matrix : Default
Bit rate mode : Variable
Bit rate : 9 000 Kbps
Width : 720 pixels
Height : 576 pixels
Display aspect ratio : 4/3
Frame rate : 25.000 fps
Standard : PAL
Colorimetry : 4:2:0
Scan type : Progressive
Scan order : Top Field First
Bits/(Pixel*Frame) : 0.868

Audio
ID : 128 (0x80)
Format : AC-3
Format/Info : Audio Coding 3
Bit rate mode : Constant
Bit rate : 192 Kbps
Channel(s) : 2 channels
Channel positions : L R
Sampling rate : 48.0 KHz

Text
ID : 32 (0x20)
Format : RLE
Format/Info : Run-length encoding

Menu
Format : DVD-Video

General
Complete name : /Volumes/Le prisonnier DVD 6/VIDEO_TS/VTS_07_1.VOB
Format : MPEG-PS
File size : 9.01 MiB

Video
ID : 224 (0xE0)
Format : MPEG Video
Format version : Version 2
Format profile : [email protected]
Format settings, Matrix : Default
Bit rate mode : Constant
Bit rate : 8 000 Kbps
Width : 720 pixels
Height : 576 pixels
Display aspect ratio : 4/3
Frame rate : 25.000 fps
Standard : PAL
Colorimetry : 4:2:0
Scan type : Interlaced
Scan order : Top Field First
Bits/(Pixel*Frame) : 0.772

Audio
ID : 128 (0x80)
Format : AC-3
Format/Info : Audio Coding 3
Bit rate mode : Constant
Bit rate : 192 Kbps
Channel(s) : 2 channels
Channel positions : L R
Sampling rate : 48.0 KHz

Menu
Format : DVD-Video

related torrents

Torrent name

health leech seeds Size
 


comments (0)

Main Menu