Movies - Other

Le Prisonnier DVD 5 ( Net)

  • Download 5x Faster
  • Download torrent
  • Direct Download
  • Rate this torrent +  |  -
Le Prisonnier DVD 5 ( Net)

Anonymous and Direct Download 300GB+ free


Torrent info

Name:Le Prisonnier DVD 5 ( Net)

Total Size: 4.37 GB

Magnet: Magnet Link

Seeds: 0

Leechers: 0

Stream: Watch Online @ Movie4u

Last Updated: 2010-02-01 13:40:31 (Update Now)

Torrent added: 2009-08-28 22:05:53




Torrent Files List


Cover 1.JPG (Size: 4.37 GB) (Files: 3)

 Cover 1.JPG

1.07 MB

 Cover 2.JPG

1.24 MB

 Le prisonnier DVD 5.iso

4.37 GB
 

Announce URL: http://www.quebec-team.net/announce.php

Torrent description

***ATTENTION***

Pour télécharger ce torrent, vous devez posséder un compte sur Quebec-Team ! et ensuite entrez votre passkey manuellement (http://www.quebec-team.net/announce.php?passkeyici) OU re-télécharger le torrent via le site. Merci!

***ATTENTION***

Lien d'origine : http://www.quebec-team.net/torrents/Films-DVD-R-PAL/torrent/Le-Prisonnier-DVD-5.html

LE PRISONNIER - DVD 5 sur 6 (...suite)
[img=Le Prisonnier DVD 5 ( Net) preview 0]


Le Prisonnier (The Prisoner) est une série télévisée britannique en 17 épisodes de 48 minutes, créée par George Markstein et Patrick McGoohan et diffusée entre le 1er octobre 1967 et le 4 février 1968 sur le réseau ITV.

SYNOPSIS

Un agent secret britannique démissionne brutalement de son poste et rentre chez lui au volant de sa Lotus Seven.
Alors qu'il prépare ses valises dans son appartement londonien, un gaz anesthésiant est diffusé dans la pièce.
À son réveil, il se retrouve au Village, un lieu idyllique et esthétique habité par une communauté de villageois tous vêtus d'habits colorés et d'un badge numéroté les identifiant. Certains sont des prisonniers, les autres leurs geôliers, et ne peuvent être différenciés les uns des autres.
Il sera désormais le Numéro 6 et n'aura de cesse de tenter de s'évader du Village.

Plus d'info sur la série Le prisonnier sur Wikipedia France

INFORMATIONS SUR LE DVD

Langue : Français France (VFF), Anglais

Pensez à rester en SEED ;)

La suite sous peu...
Cordialement,
tschaeffer


General Complete name : /Volumes/Le prisonnier DVD 5/VIDEO_TS/VIDEO_TS.BUP Format : DVD Video Format profile : Menu File size : 12.0 KiB Video ID : 0xE0 Format : MPEG Video Format version : Version 2 Bit rate mode : Variable Width : 720 pixels Height : 576 pixels Display aspect ratio : 4/3 Frame rate : 25.000 fps Standard : PAL Text Format : RLE Format/Info : Run-length encoding Resolution : 2 bits General Complete name : /Volumes/Le prisonnier DVD 5/VIDEO_TS/VIDEO_TS.IFO Format : DVD Video Format profile : Menu File size : 12.0 KiB Video ID : 0xE0 Format : MPEG Video Format version : Version 2 Bit rate mode : Variable Width : 720 pixels Height : 576 pixels Display aspect ratio : 4/3 Frame rate : 25.000 fps Standard : PAL Text Format : RLE Format/Info : Run-length encoding Resolution : 2 bits General Complete name : /Volumes/Le prisonnier DVD 5/VIDEO_TS/VIDEO_TS.VOB Format : MPEG-PS File size : 30.0 KiB Video ID : 224 (0xE0) Format : MPEG Video Format version : Version 2 Format profile : [email protected] Format settings, Matrix : Default Bit rate mode : Constant Bit rate : 9 000 Kbps Width : 720 pixels Height : 576 pixels Display aspect ratio : 4/3 Frame rate : 25.000 fps Standard : PAL Colorimetry : 4:2:0 Scan type : Progressive Scan order : Top Field First Bits/(Pixel*Frame) : 0.868 Menu Format : DVD-Video General Complete name : /Volumes/Le prisonnier DVD 5/VIDEO_TS/VTS_01_0.BUP Format : DVD Video Format profile : Program File size : 88.0 KiB Video ID : 0xE0 Format : MPEG Video Format version : Version 2 Bit rate mode : Variable Width : 720 pixels Height : 576 pixels Display aspect ratio : 4/3 Frame rate : 25.000 fps Standard : PAL Audio #1 ID : 0x80 Format : AC-3 Format/Info : Audio Coding 3 Channel(s) : 2 channels Sampling rate : 48.0 KHz Language : French Audio #2 ID : 0x81 Format : AC-3 Format/Info : Audio Coding 3 Channel(s) : 2 channels Sampling rate : 48.0 KHz Language : English Text #1 ID : 0x20 Format : RLE Format/Info : Run-length encoding Resolution : 2 bits Language : French Text #2 ID : 0x20 Format : RLE Format/Info : Run-length encoding Resolution : 2 bits Language : French Menu #1 List (Audio) : 0 / 1 List (Subtitles 4/3) : 0 / 1 List (Subtitles Wide) : 0 / 0 List (Subtitles Letterbox) : 0 / 0 List (Subtitles Pan&Scan) : 0 / 0 Menu #2 List (Audio) : 0 / 1 List (Subtitles 4/3) : 0 / 1 List (Subtitles Wide) : 0 / 0 List (Subtitles Letterbox) : 0 / 0 List (Subtitles Pan&Scan) : 0 / 0 Menu #3 General Complete name : /Volumes/Le prisonnier DVD 5/VIDEO_TS/VTS_01_0.IFO Format : DVD Video Format profile : Program File size : 88.0 KiB Video ID : 0xE0 Format : MPEG Video Format version : Version 2 Bit rate mode : Variable Width : 720 pixels Height : 576 pixels Display aspect ratio : 4/3 Frame rate : 25.000 fps Standard : PAL Audio #1 ID : 0x80 Format : AC-3 Format/Info : Audio Coding 3 Channel(s) : 2 channels Sampling rate : 48.0 KHz Language : French Audio #2 ID : 0x81 Format : AC-3 Format/Info : Audio Coding 3 Channel(s) : 2 channels Sampling rate : 48.0 KHz Language : English Text #1 ID : 0x20 Format : RLE Format/Info : Run-length encoding Resolution : 2 bits Language : French Text #2 ID : 0x20 Format : RLE Format/Info : Run-length encoding Resolution : 2 bits Language : French Menu #1 List (Audio) : 0 / 1 List (Subtitles 4/3) : 0 / 1 List (Subtitles Wide) : 0 / 0 List (Subtitles Letterbox) : 0 / 0 List (Subtitles Pan&Scan) : 0 / 0 Menu #2 List (Audio) : 0 / 1 List (Subtitles 4/3) : 0 / 1 List (Subtitles Wide) : 0 / 0 List (Subtitles Letterbox) : 0 / 0 List (Subtitles Pan&Scan) : 0 / 0 Menu #3 General Complete name : /Volumes/Le prisonnier DVD 5/VIDEO_TS/VTS_01_0.VOB Format : MPEG-PS File size : 72.5 MiB Duration : 29s 888ms Overall bit rate : 20.3 Mbps Video ID : 224 (0xE0) Format : MPEG Video Format version : Version 2 Format profile : [email protected] Format settings, Matrix : Default Duration : 29s 880ms Bit rate mode : Constant Bit rate : 19.3 Mbps Nominal bit rate : 8 000 Kbps Width : 720 pixels Height : 576 pixels Display aspect ratio : 4/3 Frame rate : 25.000 fps Standard : PAL Colorimetry : 4:2:0 Scan type : Interlaced Scan order : Top Field First Bits/(Pixel*Frame) : 1.865 Audio ID : 128 (0x80) Format : AC-3 Format/Info : Audio Coding 3 Duration : 29s 888ms Bit rate mode : Constant Bit rate : 192 Kbps Channel(s) : 2 channels Channel positions : L R Sampling rate : 48.0 KHz Stream size : 700 KiB (1%) Text ID : 32 (0x20) Format : RLE Format/Info : Run-length encoding Menu Format : DVD-Video General Complete name : /Volumes/Le prisonnier DVD 5/VIDEO_TS/VTS_01_1.VOB Format : MPEG-PS File size : 1 024 MiB Duration : 37mn 6s Overall bit rate : 3 858 Kbps Video ID : 224 (0xE0) Format : MPEG Video Format version : Version 2 Format profile : [email protected] Format settings, Matrix : Default Duration : 37mn 6s Bit rate mode : Constant Bit rate : 3 321 Kbps Nominal bit rate : 6 000 Kbps Width : 720 pixels Height : 576 pixels Display aspect ratio : 4/3 Frame rate : 25.000 fps Standard : PAL Colorimetry : 4:2:0 Scan type : Interlaced Scan order : Top Field First Bits/(Pixel*Frame) : 0.320 Stream size : 881 MiB (86%) Audio #1 ID : 128 (0x80) Format : AC-3 Format/Info : Audio Coding 3 Duration : 37mn 6s Bit rate mode : Constant Bit rate : 192 Kbps Channel(s) : 2 channels Channel positions : L R Sampling rate : 48.0 KHz Stream size : 51.0 MiB (5%) Audio #2 ID : 129 (0x81) Format : AC-3 Format/Info : Audio Coding 3 Duration : 37mn 6s Bit rate mode : Constant Bit rate : 192 Kbps Channel(s) : 2 channels Channel positions : L R Sampling rate : 48.0 KHz Stream size : 51.0 MiB (5%) Text ID : 32 (0x20) Format : RLE Format/Info : Run-length encoding Menu Format : DVD-Video General Complete name : /Volumes/Le prisonnier DVD 5/VIDEO_TS/VTS_01_2.VOB Format : MPEG-PS File size : 1 024 MiB Video ID : 224 (0xE0) Format : MPEG Video Format version : Version 2 Format profile : [email protected] Format settings, Matrix : Default Bit rate mode : Variable Bit rate : 8 500 Kbps Width : 720 pixels Height : 576 pixels Display aspect ratio : 4/3 Frame rate : 25.000 fps Standard : PAL Colorimetry : 4:2:0 Scan type : Interlaced Scan order : Top Field First Bits/(Pixel*Frame) : 0.820 Audio #1 ID : 128 (0x80) Format : AC-3 Format/Info : Audio Coding 3 Bit rate mode : Constant Bit rate : 192 Kbps Channel(s) : 2 channels Channel positions : L R Sampling rate : 48.0 KHz Video delay : -208ms Audio #2 ID : 129 (0x81) Format : AC-3 Format/Info : Audio Coding 3 Bit rate mode : Constant Bit rate : 192 Kbps Channel(s) : 2 channels Channel positions : L R Sampling rate : 48.0 KHz Video delay : -208ms Text ID : 32 (0x20) Format : RLE Format/Info : Run-length encoding Video delay : -208ms Menu Format : DVD-Video General Complete name : /Volumes/Le prisonnier DVD 5/VIDEO_TS/VTS_01_3.VOB Format : MPEG-PS File size : 1 024 MiB Video ID : 224 (0xE0) Format : MPEG Video Format version : Version 2 Format profile : [email protected] Format settings, Matrix : Default Bit rate mode : Variable Bit rate : 8 000 Kbps Width : 720 pixels Height : 576 pixels Display aspect ratio : 4/3 Frame rate : 25.000 fps Standard : PAL Colorimetry : 4:2:0 Scan type : Interlaced Scan order : Top Field First Bits/(Pixel*Frame) : 0.772 Audio #1 ID : 128 (0x80) Format : AC-3 Format/Info : Audio Coding 3 Bit rate mode : Constant Bit rate : 192 Kbps Channel(s) : 2 channels Channel positions : L R Sampling rate : 48.0 KHz Video delay : -80ms Audio #2 ID : 129 (0x81) Format : AC-3 Format/Info : Audio Coding 3 Bit rate mode : Constant Bit rate : 192 Kbps Channel(s) : 2 channels Channel positions : L R Sampling rate : 48.0 KHz Video delay : -80ms Text ID : 32 (0x20) Format : RLE Format/Info : Run-length encoding Video delay : -80ms Menu Format : DVD-Video General Complete name : /Volumes/Le prisonnier DVD 5/VIDEO_TS/VTS_01_4.VOB Format : MPEG-PS File size : 1 024 MiB Duration : 37mn 48s Overall bit rate : 3 787 Kbps Video ID : 224 (0xE0) Format : MPEG Video Format version : Version 2 Format profile : [email protected] Format settings, Matrix : Default Duration : 37mn 48s Bit rate mode : Variable Bit rate : 3 252 Kbps Nominal bit rate : 8 500 Kbps Width : 720 pixels Height : 576 pixels Display aspect ratio : 4/3 Frame rate : 25.000 fps Standard : PAL Colorimetry : 4:2:0 Scan type : Interlaced Scan order : Top Field First Bits/(Pixel*Frame) : 0.314 Stream size : 879 MiB (86%) Audio #1 ID : 128 (0x80) Format : AC-3 Format/Info : Audio Coding 3 Duration : 37mn 48s Bit rate mode : Constant Bit rate : 192 Kbps Channel(s) : 2 channels Channel positions : L R Sampling rate : 48.0 KHz Video delay : -504ms Stream size : 51.9 MiB (5%) Audio #2 ID : 129 (0x81) Format : AC-3 Format/Info : Audio Coding 3 Duration : 37mn 48s Bit rate mode : Constant Bit rate : 192 Kbps Channel(s) : 2 channels Channel positions : L R Sampling rate : 48.0 KHz Video delay : -504ms Stream size : 51.9 MiB (5%) Text ID : 32 (0x20) Format : RLE Format/Info : Run-length encoding Duration : 37mn 45s Video delay : -504ms Menu Format : DVD-Video General Complete name : /Volumes/Le prisonnier DVD 5/VIDEO_TS/VTS_01_5.VOB Format : MPEG-PS File size : 142 MiB Duration : 5mn 22s Overall bit rate : 3 698 Kbps Video ID : 224 (0xE0) Format : MPEG Video Format version : Version 2 Format profile : [email protected] Format settings, Matrix : Default Duration : 5mn 22s Bit rate mode : Variable Bit rate : 3 167 Kbps Nominal bit rate : 8 500 Kbps Width : 720 pixels Height : 576 pixels Display aspect ratio : 4/3 Frame rate : 25.000 fps Standard : PAL Colorimetry : 4:2:0 Scan type : Interlaced Scan order : Top Field First Bits/(Pixel*Frame) : 0.306 Audio #1 ID : 128 (0x80) Format : AC-3 Format/Info : Audio Coding 3 Duration : 5mn 22s Bit rate mode : Constant Bit rate : 192 Kbps Channel(s) : 2 channels Channel positions : L R Sampling rate : 48.0 KHz Video delay : -232ms Stream size : 7.37 MiB (5%) Audio #2 ID : 129 (0x81) Format : AC-3 Format/Info : Audio Coding 3 Duration : 5mn 22s Bit rate mode : Constant Bit rate : 192 Kbps Channel(s) : 2 channels Channel positions : L R Sampling rate : 48.0 KHz Video delay : -232ms Stream size : 7.37 MiB (5%) Menu Format : DVD-Video General Complete name : /Volumes/Le prisonnier DVD 5/VIDEO_TS/VTS_02_0.BUP Format : DVD Video Format profile : Program File size : 18.0 KiB Video ID : 0xE0 Format : MPEG Video Format version : Version 2 Bit rate mode : Variable Width : 720 pixels Height : 576 pixels Display aspect ratio : 4/3 Frame rate : 25.000 fps Standard : PAL Audio ID : 0x80 Format : AC-3 Format/Info : Audio Coding 3 Channel(s) : 2 channels Sampling rate : 48.0 KHz Language : English Text ID : 0x20 Format : RLE Format/Info : Run-length encoding Resolution : 2 bits Language : French Menu #1 List (Audio) : 0 List (Subtitles 4/3) : 0 List (Subtitles Wide) : 0 List (Subtitles Letterbox) : 0 List (Subtitles Pan&Scan) : 0 Menu #2 List (Audio) : 0 List (Subtitles 4/3) : 0 List (Subtitles Wide) : 0 List (Subtitles Letterbox) : 0 List (Subtitles Pan&Scan) : 0 Menu #3 General Complete name : /Volumes/Le prisonnier DVD 5/VIDEO_TS/VTS_02_0.IFO Format : DVD Video Format profile : Program File size : 18.0 KiB Video ID : 0xE0 Format : MPEG Video Format version : Version 2 Bit rate mode : Variable Width : 720 pixels Height : 576 pixels Display aspect ratio : 4/3 Frame rate : 25.000 fps Standard : PAL Audio ID : 0x80 Format : AC-3 Format/Info : Audio Coding 3 Channel(s) : 2 channels Sampling rate : 48.0 KHz Language : English Text ID : 0x20 Format : RLE Format/Info : Run-length encoding Resolution : 2 bits Language : French Menu #1 List (Audio) : 0 List (Subtitles 4/3) : 0 List (Subtitles Wide) : 0 List (Subtitles Letterbox) : 0 List (Subtitles Pan&Scan) : 0 Menu #2 List (Audio) : 0 List (Subtitles 4/3) : 0 List (Subtitles Wide) : 0 List (Subtitles Letterbox) : 0 List (Subtitles Pan&Scan) : 0 Menu #3 General Complete name : /Volumes/Le prisonnier DVD 5/VIDEO_TS/VTS_02_0.VOB Format : MPEG-PS File size : 1.74 MiB Video ID : 224 (0xE0) Format : MPEG Video Format version : Version 2 Format profile : [email protected] Format settings, Matrix : Default Bit rate mode : Constant Bit rate : 9 000 Kbps Width : 720 pixels Height : 576 pixels Display aspect ratio : 4/3 Frame rate : 25.000 fps Standard : PAL Colorimetry : 4:2:0 Scan type : Progressive Scan order : Top Field First Bits/(Pixel*Frame) : 0.868 Audio ID : 128 (0x80) Format : AC-3 Format/Info : Audio Coding 3 Bit rate mode : Constant Bit rate : 192 Kbps Channel(s) : 2 channels Channel positions : L R Sampling rate : 48.0 KHz Text ID : 32 (0x20) Format : RLE Format/Info : Run-length encoding Menu Format : DVD-Video General Complete name : /Volumes/Le prisonnier DVD 5/VIDEO_TS/VTS_02_1.VOB Format : MPEG-PS File size : 158 MiB Duration : 58s 664ms Overall bit rate : 22.5 Mbps Video ID : 224 (0xE0) Format : MPEG Video Format version : Version 2 Format profile : [email protected] Format settings, Matrix : Default Duration : 58s 664ms Bit rate mode : Constant Bit rate : 21.5 Mbps Nominal bit rate : 8 000 Kbps Width : 720 pixels Height : 576 pixels Display aspect ratio : 4/3 Frame rate : 25.000 fps Standard : PAL Colorimetry : 4:2:0 Scan type : Interlaced Scan order : Top Field First Bits/(Pixel*Frame) : 2.069 Stream size : 150 MiB (95%) Audio ID : 128 (0x80) Format : AC-3 Format/Info : Audio Coding 3 Duration : 58s 552ms Bit rate mode : Constant Bit rate : 192 Kbps Channel(s) : 2 channels Channel positions : L R Sampling rate : 48.0 KHz Stream size : 1.34 MiB (1%) Text ID : 32 (0x20) Format : RLE Format/Info : Run-length encoding Menu Format : DVD-Video

related torrents

Torrent name

health leech seeds Size
 


comments (0)

Main Menu