Movies - Other

Le Prisonnier DVD 3 ( Net)

  • Download 5x Faster
  • Download torrent
  • Direct Download
  • Rate this torrent +  |  -
Le Prisonnier DVD 3 ( Net)

Free and Direct Download with Usenet 300GB+ free


Torrent info

Name:Le Prisonnier DVD 3 ( Net)

Total Size: 4.37 GB

Magnet: Magnet Link

Seeds: 0

Leechers: 0

Stream: Watch Online @ Movie4u

Last Updated: 2010-09-15 04:12:29 (Update Now)

Torrent added: 2009-08-28 22:05:52




Torrent Files List


Cover 1.JPG (Size: 4.37 GB) (Files: 3)

 Cover 1.JPG

0.99 MB

 Cover 2.JPG

1.36 MB

 Le prisonnier DVD 3.iso

4.37 GB
 

Announce URL: http://www.quebec-team.net/announce.php

Torrent description

***ATTENTION***

Pour télécharger ce torrent, vous devez posséder un compte sur Quebec-Team ! et ensuite entrez votre passkey manuellement (http://www.quebec-team.net/announce.php?passkeyici) OU re-télécharger le torrent via le site. Merci!

***ATTENTION***

Lien d'origine : http://www.quebec-team.net/torrents/Films-DVD-R-PAL/torrent/Le-Prisonnier-DVD-3.html

LE PRISONNIER - DVD 3 sur 6 (...suite)
[img=Le Prisonnier DVD 3 ( Net) preview 0]


Le Prisonnier (The Prisoner) est une série télévisée britannique en 17 épisodes de 48 minutes, créée par George Markstein et Patrick McGoohan et diffusée entre le 1er octobre 1967 et le 4 février 1968 sur le réseau ITV.

SYNOPSIS

Un agent secret britannique démissionne brutalement de son poste et rentre chez lui au volant de sa Lotus Seven.
Alors qu'il prépare ses valises dans son appartement londonien, un gaz anesthésiant est diffusé dans la pièce.
À son réveil, il se retrouve au Village, un lieu idyllique et esthétique habité par une communauté de villageois tous vêtus d'habits colorés et d'un badge numéroté les identifiant. Certains sont des prisonniers, les autres leurs geôliers, et ne peuvent être différenciés les uns des autres.
Il sera désormais le Numéro 6 et n'aura de cesse de tenter de s'évader du Village.

Plus d'info sur la série Le prisonnier sur Wikipedia France

INFORMATIONS SUR LE DVD

Langue : Français France (VFF), Anglais

Pensez à rester en SEED ;)

La suite sous peu...
Cordialement,
tschaeffer


General Complete name : /Volumes/Le Prisonnier DVD03/VIDEO_TS/VIDEO_TS.BUP Format : DVD Video Format profile : Menu File size : 12.0 KiB Video ID : 0xE0 Format : MPEG Video Format version : Version 2 Bit rate mode : Variable Width : 720 pixels Height : 576 pixels Display aspect ratio : 4/3 Frame rate : 25.000 fps Standard : PAL Text Format : RLE Format/Info : Run-length encoding Resolution : 2 bits General Complete name : /Volumes/Le Prisonnier DVD03/VIDEO_TS/VIDEO_TS.IFO Format : DVD Video Format profile : Menu File size : 12.0 KiB Video ID : 0xE0 Format : MPEG Video Format version : Version 2 Bit rate mode : Variable Width : 720 pixels Height : 576 pixels Display aspect ratio : 4/3 Frame rate : 25.000 fps Standard : PAL Text Format : RLE Format/Info : Run-length encoding Resolution : 2 bits General Complete name : /Volumes/Le Prisonnier DVD03/VIDEO_TS/VIDEO_TS.VOB Format : MPEG-PS File size : 30.0 KiB Video ID : 224 (0xE0) Format : MPEG Video Format version : Version 2 Format profile : Main@Main Format settings, Matrix : Default Bit rate mode : Constant Bit rate : 9 000 Kbps Width : 720 pixels Height : 576 pixels Display aspect ratio : 4/3 Frame rate : 25.000 fps Standard : PAL Colorimetry : 4:2:0 Scan type : Progressive Scan order : Top Field First Bits/(Pixel*Frame) : 0.868 Menu Format : DVD-Video General Complete name : /Volumes/Le Prisonnier DVD03/VIDEO_TS/VTS_01_0.BUP Format : DVD Video Format profile : Program File size : 86.0 KiB Video ID : 0xE0 Format : MPEG Video Format version : Version 2 Bit rate mode : Variable Width : 720 pixels Height : 576 pixels Display aspect ratio : 4/3 Frame rate : 25.000 fps Standard : PAL Audio #1 ID : 0x80 Format : AC-3 Format/Info : Audio Coding 3 Channel(s) : 2 channels Sampling rate : 48.0 KHz Language : French Audio #2 ID : 0x81 Format : AC-3 Format/Info : Audio Coding 3 Channel(s) : 2 channels Sampling rate : 48.0 KHz Language : English Text #1 ID : 0x20 Format : RLE Format/Info : Run-length encoding Resolution : 2 bits Language : French Text #2 ID : 0x20 Format : RLE Format/Info : Run-length encoding Resolution : 2 bits Language : French Menu #1 List (Audio) : 0 / 1 List (Subtitles 4/3) : 0 / 1 List (Subtitles Wide) : 0 / 0 List (Subtitles Letterbox) : 0 / 0 List (Subtitles Pan&Scan) : 0 / 0 Menu #2 List (Audio) : 0 / 1 List (Subtitles 4/3) : 0 / 1 List (Subtitles Wide) : 0 / 0 List (Subtitles Letterbox) : 0 / 0 List (Subtitles Pan&Scan) : 0 / 0 Menu #3 General Complete name : /Volumes/Le Prisonnier DVD03/VIDEO_TS/VTS_01_0.IFO Format : DVD Video Format profile : Program File size : 86.0 KiB Video ID : 0xE0 Format : MPEG Video Format version : Version 2 Bit rate mode : Variable Width : 720 pixels Height : 576 pixels Display aspect ratio : 4/3 Frame rate : 25.000 fps Standard : PAL Audio #1 ID : 0x80 Format : AC-3 Format/Info : Audio Coding 3 Channel(s) : 2 channels Sampling rate : 48.0 KHz Language : French Audio #2 ID : 0x81 Format : AC-3 Format/Info : Audio Coding 3 Channel(s) : 2 channels Sampling rate : 48.0 KHz Language : English Text #1 ID : 0x20 Format : RLE Format/Info : Run-length encoding Resolution : 2 bits Language : French Text #2 ID : 0x20 Format : RLE Format/Info : Run-length encoding Resolution : 2 bits Language : French Menu #1 List (Audio) : 0 / 1 List (Subtitles 4/3) : 0 / 1 List (Subtitles Wide) : 0 / 0 List (Subtitles Letterbox) : 0 / 0 List (Subtitles Pan&Scan) : 0 / 0 Menu #2 List (Audio) : 0 / 1 List (Subtitles 4/3) : 0 / 1 List (Subtitles Wide) : 0 / 0 List (Subtitles Letterbox) : 0 / 0 List (Subtitles Pan&Scan) : 0 / 0 Menu #3 General Complete name : /Volumes/Le Prisonnier DVD03/VIDEO_TS/VTS_01_0.VOB Format : MPEG-PS File size : 74.9 MiB Duration : 29s 850ms Overall bit rate : 21.0 Mbps Video ID : 224 (0xE0) Format : MPEG Video Format version : Version 2 Format profile : Main@Main Format settings, Matrix : Default Duration : 29s 840ms Bit rate mode : Constant Bit rate : 20.0 Mbps Nominal bit rate : 8 000 Kbps Width : 720 pixels Height : 576 pixels Display aspect ratio : 4/3 Frame rate : 25.000 fps Standard : PAL Colorimetry : 4:2:0 Scan type : Interlaced Scan order : Top Field First Bits/(Pixel*Frame) : 1.930 Audio ID : 128 (0x80) Format : AC-3 Format/Info : Audio Coding 3 Duration : 29s 850ms Bit rate mode : Constant Bit rate : 192 Kbps Channel(s) : 2 channels Channel positions : L R Sampling rate : 48.0 KHz Stream size : 700 KiB (1%) Text ID : 32 (0x20) Format : RLE Format/Info : Run-length encoding Menu Format : DVD-Video General Complete name : /Volumes/Le Prisonnier DVD03/VIDEO_TS/VTS_01_1.VOB Format : MPEG-PS File size : 1 024 MiB Duration : 35mn 12s Overall bit rate : 4 067 Kbps Video ID : 224 (0xE0) Format : MPEG Video Format version : Version 2 Format profile : Main@Main Format settings, Matrix : Default Duration : 35mn 12s Bit rate mode : Constant Bit rate : 3 521 Kbps Nominal bit rate : 6 000 Kbps Width : 720 pixels Height : 576 pixels Display aspect ratio : 4/3 Frame rate : 25.000 fps Standard : PAL Colorimetry : 4:2:0 Scan type : Interlaced Scan order : Top Field First Bits/(Pixel*Frame) : 0.340 Stream size : 887 MiB (87%) Audio #1 ID : 128 (0x80) Format : AC-3 Format/Info : Audio Coding 3 Duration : 35mn 12s Bit rate mode : Constant Bit rate : 192 Kbps Channel(s) : 2 channels Channel positions : L R Sampling rate : 48.0 KHz Stream size : 48.3 MiB (5%) Audio #2 ID : 129 (0x81) Format : AC-3 Format/Info : Audio Coding 3 Duration : 35mn 12s Bit rate mode : Constant Bit rate : 192 Kbps Channel(s) : 2 channels Channel positions : L R Sampling rate : 48.0 KHz Stream size : 48.3 MiB (5%) Text ID : 32 (0x20) Format : RLE Format/Info : Run-length encoding Menu Format : DVD-Video General Complete name : /Volumes/Le Prisonnier DVD03/VIDEO_TS/VTS_01_2.VOB Format : MPEG-PS File size : 1 024 MiB Video ID : 224 (0xE0) Format : MPEG Video Format version : Version 2 Format profile : Main@Main Format settings, Matrix : Default Bit rate mode : Variable Bit rate : 8 500 Kbps Width : 720 pixels Height : 576 pixels Display aspect ratio : 4/3 Frame rate : 25.000 fps Standard : PAL Colorimetry : 4:2:0 Scan type : Interlaced Scan order : Top Field First Bits/(Pixel*Frame) : 0.820 Audio #1 ID : 128 (0x80) Format : AC-3 Format/Info : Audio Coding 3 Bit rate mode : Constant Bit rate : 192 Kbps Channel(s) : 2 channels Channel positions : L R Sampling rate : 48.0 KHz Video delay : -472ms Audio #2 ID : 129 (0x81) Format : AC-3 Format/Info : Audio Coding 3 Bit rate mode : Constant Bit rate : 192 Kbps Channel(s) : 2 channels Channel positions : L R Sampling rate : 48.0 KHz Video delay : -472ms Text ID : 32 (0x20) Format : RLE Format/Info : Run-length encoding Video delay : -472ms Menu Format : DVD-Video General Complete name : /Volumes/Le Prisonnier DVD03/VIDEO_TS/VTS_01_3.VOB Format : MPEG-PS File size : 1 024 MiB Video ID : 224 (0xE0) Format : MPEG Video Format version : Version 2 Format profile : Main@Main Format settings, Matrix : Default Bit rate mode : Variable Bit rate : 8 500 Kbps Width : 720 pixels Height : 576 pixels Display aspect ratio : 4/3 Frame rate : 25.000 fps Standard : PAL Colorimetry : 4:2:0 Scan type : Interlaced Scan order : Top Field First Bits/(Pixel*Frame) : 0.820 Audio #1 ID : 128 (0x80) Format : AC-3 Format/Info : Audio Coding 3 Bit rate mode : Constant Bit rate : 192 Kbps Channel(s) : 2 channels Channel positions : L R Sampling rate : 48.0 KHz Video delay : -288ms Audio #2 ID : 129 (0x81) Format : AC-3 Format/Info : Audio Coding 3 Bit rate mode : Constant Bit rate : 192 Kbps Channel(s) : 2 channels Channel positions : L R Sampling rate : 48.0 KHz Video delay : -288ms Menu Format : DVD-Video General Complete name : /Volumes/Le Prisonnier DVD03/VIDEO_TS/VTS_01_4.VOB Format : MPEG-PS File size : 1 024 MiB Duration : 35mn 31s Overall bit rate : 4 030 Kbps Video ID : 224 (0xE0) Format : MPEG Video Format version : Version 2 Format profile : Main@Main Format settings, Matrix : Default Duration : 35mn 31s Bit rate mode : Variable Bit rate : 3 486 Kbps Nominal bit rate : 8 500 Kbps Width : 720 pixels Height : 576 pixels Display aspect ratio : 4/3 Frame rate : 25.000 fps Standard : PAL Colorimetry : 4:2:0 Scan type : Interlaced Scan order : Top Field First Bits/(Pixel*Frame) : 0.336 Stream size : 886 MiB (86%) Audio #1 ID : 128 (0x80) Format : AC-3 Format/Info : Audio Coding 3 Duration : 35mn 31s Bit rate mode : Constant Bit rate : 192 Kbps Channel(s) : 2 channels Channel positions : L R Sampling rate : 48.0 KHz Video delay : -264ms Stream size : 48.8 MiB (5%) Audio #2 ID : 129 (0x81) Format : AC-3 Format/Info : Audio Coding 3 Duration : 35mn 31s Bit rate mode : Constant Bit rate : 192 Kbps Channel(s) : 2 channels Channel positions : L R Sampling rate : 48.0 KHz Video delay : -264ms Stream size : 48.8 MiB (5%) Text ID : 32 (0x20) Format : RLE Format/Info : Run-length encoding Video delay : -264ms Menu Format : DVD-Video General Complete name : /Volumes/Le Prisonnier DVD03/VIDEO_TS/VTS_01_5.VOB Format : MPEG-PS File size : 134 MiB Duration : 5mn 9s Overall bit rate : 3 629 Kbps Video ID : 224 (0xE0) Format : MPEG Video Format version : Version 2 Format profile : Main@Main Format settings, Matrix : Default Duration : 5mn 9s Bit rate mode : Variable Bit rate : 3 101 Kbps Nominal bit rate : 8 500 Kbps Width : 720 pixels Height : 576 pixels Display aspect ratio : 4/3 Frame rate : 25.000 fps Standard : PAL Colorimetry : 4:2:0 Scan type : Interlaced Scan order : Top Field First Bits/(Pixel*Frame) : 0.299 Audio #1 ID : 128 (0x80) Format : AC-3 Format/Info : Audio Coding 3 Duration : 5mn 9s Bit rate mode : Constant Bit rate : 192 Kbps Channel(s) : 2 channels Channel positions : L R Sampling rate : 48.0 KHz Video delay : -384ms Stream size : 7.08 MiB (5%) Audio #2 ID : 129 (0x81) Format : AC-3 Format/Info : Audio Coding 3 Duration : 5mn 9s Bit rate mode : Constant Bit rate : 192 Kbps Channel(s) : 2 channels Channel positions : L R Sampling rate : 48.0 KHz Video delay : -384ms Stream size : 7.08 MiB (5%) Menu Format : DVD-Video General Complete name : /Volumes/Le Prisonnier DVD03/VIDEO_TS/VTS_02_0.BUP Format : DVD Video Format profile : Program File size : 18.0 KiB Video ID : 0xE0 Format : MPEG Video Format version : Version 2 Bit rate mode : Variable Width : 720 pixels Height : 576 pixels Display aspect ratio : 4/3 Frame rate : 25.000 fps Standard : PAL Audio ID : 0x80 Format : AC-3 Format/Info : Audio Coding 3 Channel(s) : 2 channels Sampling rate : 48.0 KHz Language : English Text ID : 0x20 Format : RLE Format/Info : Run-length encoding Resolution : 2 bits Language : French Menu #1 List (Audio) : 0 List (Subtitles 4/3) : 0 List (Subtitles Wide) : 0 List (Subtitles Letterbox) : 0 List (Subtitles Pan&Scan) : 0 Menu #2 List (Audio) : 0 List (Subtitles 4/3) : 0 List (Subtitles Wide) : 0 List (Subtitles Letterbox) : 0 List (Subtitles Pan&Scan) : 0 Menu #3 General Complete name : /Volumes/Le Prisonnier DVD03/VIDEO_TS/VTS_02_0.IFO Format : DVD Video Format profile : Program File size : 18.0 KiB Video ID : 0xE0 Format : MPEG Video Format version : Version 2 Bit rate mode : Variable Width : 720 pixels Height : 576 pixels Display aspect ratio : 4/3 Frame rate : 25.000 fps Standard : PAL Audio ID : 0x80 Format : AC-3 Format/Info : Audio Coding 3 Channel(s) : 2 channels Sampling rate : 48.0 KHz Language : English Text ID : 0x20 Format : RLE Format/Info : Run-length encoding Resolution : 2 bits Language : French Menu #1 List (Audio) : 0 List (Subtitles 4/3) : 0 List (Subtitles Wide) : 0 List (Subtitles Letterbox) : 0 List (Subtitles Pan&Scan) : 0 Menu #2 List (Audio) : 0 List (Subtitles 4/3) : 0 List (Subtitles Wide) : 0 List (Subtitles Letterbox) : 0 List (Subtitles Pan&Scan) : 0 Menu #3 General Complete name : /Volumes/Le Prisonnier DVD03/VIDEO_TS/VTS_02_0.VOB Format : MPEG-PS File size : 1.76 MiB Video ID : 224 (0xE0) Format : MPEG Video Format version : Version 2 Format profile : Main@Main Format settings, Matrix : Default Bit rate mode : Constant Bit rate : 9 000 Kbps Width : 720 pixels Height : 576 pixels Display aspect ratio : 4/3 Frame rate : 25.000 fps Standard : PAL Colorimetry : 4:2:0 Scan type : Progressive Scan order : Top Field First Bits/(Pixel*Frame) : 0.868 Audio ID : 128 (0x80) Format : AC-3 Format/Info : Audio Coding 3 Bit rate mode : Constant Bit rate : 192 Kbps Channel(s) : 2 channels Channel positions : L R Sampling rate : 48.0 KHz Text ID : 32 (0x20) Format : RLE Format/Info : Run-length encoding Menu Format : DVD-Video General Complete name : /Volumes/Le Prisonnier DVD03/VIDEO_TS/VTS_02_1.VOB Format : MPEG-PS File size : 163 MiB Duration : 57s 208ms Overall bit rate : 24.0 Mbps Video ID : 224 (0xE0) Format : MPEG Video Format version : Version 2 Format profile : Main@Main Format settings, Matrix : Default Duration : 57s 208ms Bit rate mode : Constant Bit rate : 22.8 Mbps Nominal bit rate : 8 000 Kbps Width : 720 pixels Height : 576 pixels Display aspect ratio : 4/3 Frame rate : 25.000 fps Standard : PAL Colorimetry : 4:2:0 Scan type : Interlaced Scan order : Top Field First Bits/(Pixel*Frame) : 2.202 Stream size : 156 MiB (95%) Audio ID : 128 (0x80) Format : AC-3 Format/Info : Audio Coding 3 Duration : 57s 128ms Bit rate mode : Constant Bit rate : 192 Kbps Channel(s) : 2 channels Channel positions : L R Sampling rate : 48.0 KHz Stream size : 1.31 MiB (1%) Text ID : 32 (0x20) Format : RLE Format/Info : Run-length encoding Menu Format : DVD-Video

related torrents

Torrent name

health leech seeds Size
 

comments (0)

Main Menu