Movies - Other

L Autre Rive FRENCH DVDRiP XVID up mavric "VFF" ( Net)

  • Download 5x Faster
  • Download torrent
  • Direct Download
  • Rate this torrent +  |  -
L Autre Rive FRENCH DVDRiP XVID up mavric "VFF" ( Net)

Free and Direct Download with Usenet.nl 300GB+ free


Torrent info

Name:L Autre Rive FRENCH DVDRiP XVID up mavric "VFF" ( Net)

Total Size: 698.21 MB

Magnet: Magnet Link

Seeds: 0

Leechers: 0

Stream: Watch Online @ Movie4u

Last Updated: 2010-09-29 15:09:40 (Update Now)

Torrent added: 2009-08-28 21:42:49





Torrent Files List


L.Autre.Rive.FRENCH.DVDRiP.XVID-M2Niro.avi (Size: 698.21 MB) (Files: 2)

 L.Autre.Rive.FRENCH.DVDRiP.XVID-M2Niro.avi

698.21 MB

 L.Autre.Rive.FRENCH.DVDRiP.XVID-M2Niro.nfo

2.21 KB
 

Announce URL: http://www.quebec-team.net/announce.php

Torrent description

***ATTENTION***

Pour télécharger ce torrent, vous devez posséder un compte sur Quebec-Team ! et ensuite entrez votre passkey manuellement (http://www.quebec-team.net/announce.php?passkeyici) OU re-télécharger le torrent via le site. Merci!

***ATTENTION***

Lien d'origine : http://www.quebec-team.net/torrents/Films--DVD-RIP/torrent/L.Autre.Rive.FRENCH.DVDRiP.XVID-up-mavric-_VFF_.html

[taille=24][aligner=centre]L.Autre.Rive.FRENCH.DVDRiP.XVID-M2Niro "VFF" [/aligner][/taille]




[aligner=centre]L Autre Rive FRENCH DVDRiP XVID up mavric "VFF" ( Net) preview 0[/aligner]

[aligner=centre]L Autre Rive FRENCH DVDRiP XVID up mavric "VFF" ( Net) preview 1[/aligner]

[aligner=centre]John Munn, fermier et taxidermiste élève seul ses deux fils, Chris et Tim, dans une maison isolée
perdue au fond de la forêt. Chris, l'aîné, vit de plus en plus mal de devoir accomplir les tâches que son jeune
frère, maladif, ne peut mener à bien. En fait, Chris rêve d'une autre vie. Quand son oncle Deel débarque, la
routine de la maisonnée est enfin bouleversée. Mais Deel n'est la que pour voler un sac rempli de pièces d'or,
héritage familial. Pour l'avoir, il n'hésite pas à tuer son propre frère sous les yeux de ses neveux. Une fuite
initiatique commence alors pour Chris et Tim...[/aligner]


[aligner=centre]L Autre Rive FRENCH DVDRiP XVID up mavric "VFF" ( Net) preview 2[/aligner]


[aligner=centre]
Origine du film : USA

Réalisateurs : David Gordon Green

Acteurs : Dermot Mulronet, Josh Lucas, Jamie Bell

Genre : Thriller – Drame

Titre original : Undertow

Durée : 1h42min

Date de sortie DVD: 2006

Année de production : 2005

Distribution : Wild Side Vidéo


General
Complete name : C:UsersmavricDownloadsL.Autre.Rive.FRENCH.DVDRiP.XVID-M2NiroL.Autre.Rive.FRENCH.DVDRiP.XVID-M2Niro.avi
Format : AVI
Format/Info : Audio Video Interleave
File size : 698 MiB
Duration : 1h 43mn
Overall bit rate : 942 Kbps
Writing application : VirtualDubMod 1.5.10.1 (build 2439/release)
Writing library : VirtualDubMod build 2439/release

Video
ID : 0
Format : MPEG-4 Visual
Format profile : [email protected]
Format settings, BVOP : Yes
Format settings, QPel : No
Format settings, GMC : No warppoints
Format settings, Matrix : Default (H.263)
Muxing mode : Packed bitstream
Codec ID : XVID
Codec ID/Hint : XviD
Duration : 1h 43mn
Bit rate : 806 Kbps
Width : 576 pixels
Height : 304 pixels
Display aspect ratio : 1.895
Frame rate : 25.000 fps
Resolution : 24 bits
Colorimetry : 4:2:0
Scan type : Progressive
Bits/(Pixel*Frame) : 0.184
Stream size : 598 MiB (86%)
Writing library : XviD 1.0.2 (UTC 2004-08-29)

Audio
ID : 1
Format : MPEG Audio
Format version : Version 1
Format profile : Layer 3
Codec ID : 55
Codec ID/Hint : MP3
Duration : 1h 43mn
Bit rate mode : Variable
Bit rate : 123 Kbps
Nominal bit rate : 128 Kbps
Channel(s) : 2 channels
Sampling rate : 48.0 KHz
Resolution : 16 bits
Stream size : 90.8 MiB (13%)
Alignment : Aligned on interleaves
Interleave, duration : 24 ms (0.60 video frame)
Interleave, preload duration : 611 ms
Writing library : LAME3.96r
Encoding settings : -m d -V 4 -q 3 -lowpass 17.5 --abr 128

General
[/aligner]

related torrents

Torrent name

health leech seeds Size
 

comments (0)

Main Menu