Movies - Other

l'Evangile selon Saint Matthieu Pasolini ( Net)

  • Download 5x Faster
  • Download torrent
  • Direct Download
  • Rate this torrent +  |  -
l'Evangile selon Saint Matthieu Pasolini ( Net)

Free and Direct Download with Usenet.nl 300GB+ free


Torrent info

Name:l'Evangile selon Saint Matthieu Pasolini ( Net)

Total Size: 702.35 MB

Magnet: Magnet Link

Seeds: 0

Leechers: 0

Stream: Watch Online @ Movie4u

Last Updated: 2010-09-03 17:38:09 (Update Now)

Torrent added: 2009-08-28 21:41:21





Torrent Files List


Pasolini L'evangile selon st matthieu Fr Dvdrip-eXoNET.avi (Size: 702.35 MB) (Files: 1)

 Pasolini L'evangile selon st matthieu Fr Dvdrip-eXoNET.avi

702.35 MB
 

Announce URL: http://www.quebec-team.net/announce.php

Torrent description

***ATTENTION***

Pour télécharger ce torrent, vous devez posséder un compte sur Quebec-Team ! et ensuite entrez votre passkey manuellement (http://www.quebec-team.net/announce.php?passkeyici) OU re-télécharger le torrent via le site. Merci!

***ATTENTION***

Lien d'origine : http://www.quebec-team.net/torrents/Films--DVD-RIP/torrent/l_Evangile-selon-Saint-Matthieu-Pasolini.html

[couleur=red]L'Evangile selon Saint Matthieu[/couleur]

l'Evangile selon Saint Matthieu Pasolini ( Net) preview 0

l'Evangile selon Saint Matthieu Pasolini ( Net) preview 1

l'Evangile selon Saint Matthieu Pasolini ( Net) preview 3

Origine du film : français, italien
Réalisateur : Pier Paolo Pasolini
Acteurs : Enrique Irazoqui, Margherita Caruso, Susana Pasolini
Genre : Historique, Biopic
Durée : 2h 17min
Date de sortie : Aucune information ...
Année de production : 1964
Titre Original : Il Vangelo secondo Matteo
Distribué par : Carlotta Films
Critiques spectateurs : l'Evangile selon Saint Matthieu Pasolini ( Net) preview 2 pour 22 critiques
Bande annonce :
Aucune bande annonce disponible pour ce film ...

l'Evangile selon Saint Matthieu Pasolini ( Net) preview 4

La vie du Christ selon Saint-Matthieu et Pier Paolo Pasolini. Une reconstitution fidèle de l'Evangile.

l'Evangile selon Saint Matthieu Pasolini ( Net) preview 5



Qualité : DVDRiP

Format : XviD

Langue : FrançaisVFF

Sous-titre : Aucun

Découper avec : Aucun

Nombre de fichiers : 1 Fichiers

Taille des fichiers : 702 Mo

Taille totale : 702 Mo

l'Evangile selon Saint Matthieu Pasolini ( Net) preview 6





[couleur=red]Total du post: 702 Mo[/couleur]

[quote]General

Complete name : Pasolini L'evangile selon st matthieu Fr Dvdrip

Format : AVI

Format/Info : Audio Video Interleave

File size : 702 MiB

Duration : 2h 11mn

Overall bit rate : 748 Kbps

Writing application : MEncoder SVN-r22963

Writing library : MPlayer



Video

Format : MPEG-4 Visual

Format profile : [email protected]

Format settings, BVOP : No

Format settings, QPel : No

Format settings, GMC : No warppoints

Format settings, Matrix : Default (H.263)

Codec ID : XVID

Codec ID/Hint : XviD

Duration : 2h 11mn

Bit rate : 640 Kbps

Width : 720 pixels

Height : 400 pixels

Display aspect ratio : 16/9

Frame rate : 25.000 fps

Resolution : 24 bits

Colorimetry : 4:2:0

Scan type : Progressive

Bits/(Pixel*Frame) : 0.089

Stream size : 601 MiB (86%)

Writing library : Lavc51.40.2



Audio

Format : MPEG Audio

Format version : Version 1

Format profile : Layer 3

Codec ID : 55

Codec ID/Hint : MP3

Duration : 2h 11mn

Bit rate mode : Constant

Bit rate : 96.0 Kbps

Channel(s) : 2 channels

Sampling rate : 44.1 KHz

Resolution : 16 bits

Stream size : 90.1 MiB (13%)

Alignment : Aligned on interleaves

Interleave, duration : 26 ms (0.65 video frame)

Interleave, preload duration : 522 ms



[/quote] .: || Générée avec StreeTPreZ" || :.



Complete name : Pasolini L'evangile selon st matthieu Fr Dvdrip
Format : AVI
Format/Info : Audio Video Interleave
File size : 702 MiB
Duration : 2h 11mn
Overall bit rate : 748 Kbps
Writing application : MEncoder SVN-r22963
Writing library : MPlayer

Video
Format : MPEG-4 Visual
Format profile : [email protected]
Format settings, BVOP : No
Format settings, QPel : No
Format settings, GMC : No warppoints
Format settings, Matrix : Default (H.263)
Codec ID : XVID
Codec ID/Hint : XviD
Duration : 2h 11mn
Bit rate : 640 Kbps
Width : 720 pixels
Height : 400 pixels
Display aspect ratio : 16/9
Frame rate : 25.000 fps
Resolution : 24 bits
Colorimetry : 4:2:0
Scan type : Progressive
Bits/(Pixel*Frame) : 0.089
Stream size : 601 MiB (86%)
Writing library : Lavc51.40.2

Audio
Format : MPEG Audio
Format version : Version 1
Format profile : Layer 3
Codec ID : 55
Codec ID/Hint : MP3
Duration : 2h 11mn
Bit rate mode : Constant
Bit rate : 96.0 Kbps
Channel(s) : 2 channels
Sampling rate : 44.1 KHz
Resolution : 16 bits
Stream size : 90.1 MiB (13%)
Alignment : Aligned on interleaves
Interleave, duration : 26 ms (0.65 video frame)
Interleave, preload duration : 522 ms

--------------------------------------------------------------------------

related torrents

Torrent name

health leech seeds Size

Saint Row 2 ( Net)

0 0 6.76 GB 0
 

comments (0)

Main Menu