Movies - Other

Ken Park[2002] Maka6358

  • Download 5x Faster
  • Download torrent
  • Direct Download
  • Rate this torrent +  |  -
Ken Park[2002] Maka6358

Free and Direct Download with Usenet.nl 300GB+ free


Torrent info

Name:Ken Park[2002] Maka6358

Total Size: 699.95 MB

Magnet: Magnet Link

Seeds: 0

Leechers: 0

Stream: Watch Online @ Movie4u

Last Updated: 0000-00-00 00:00:00 (Update Now)

Torrent added: 2009-08-28 21:26:57





Torrent Files List


ken park.txt (Size: 699.95 MB) (Files: 2)

 ken park.txt

0.70 KB

 Ken_Park[2002]-Maka6358.avi

699.95 MB
 

Announce URL:

Torrent description


Ken Park (2002)
Ken Park focuses on several teenagers and their tormented home lives. Shawn seems to be the most conventional. Tate is brimming with psychotic rage; Claude is habitually harassed by his brutish father and coddled, rather uncomfortably, by his enormously pregnant mother. Peaches looks after her devoutly religious father, but yearns for freedom. They're all rather tight, or so they claim. But they spend precious little time together and none of them seems to know much about one another's family lives. This bizarre dichotomy underscores their alienation # the result of suburban ennui, a teenager's inherent sense of melodrama, and the disturbing nature of their home environments.

General
Complete name : Ken_Park[2002]-Maka6358\Ken_Park[2002]-Maka6358.avi
Format : AVI
Format/Info : Audio Video Interleave
File size : 700 MiB
Duration : 1h 29mn
Overall bit rate : 1 095 Kbps

Video
Format : MPEG-4 Visual
Format profile : Streaming [email protected]
Format settings, BVOP : Yes
Format settings, QPel : No
Format settings, GMC : No warppoints
Format settings, Matrix : Custom
Codec ID : XVID
Codec ID/Hint : XviD
Duration : 1h 29mn
Bit rate : 968 Kbps
Width : 720 pixels
Height : 416 pixels
Display aspect ratio : 16/9
Frame rate : 25.000 fps
Resolution : 24 bits
Colorimetry : 4:2:0
Scan type : Progressive
Bits/(Pixel*Frame) : 0.129
Stream size : 619 MiB (88%)
Writing library : XviD 1.2.0.dev47 (UTC 2006-11-01)

Audio
Format : MPEG Audio
Format version : Version 1
Format profile : Layer 3
Codec ID : 55
Codec ID/Hint : MP3
Duration : 1h 29mn
Bit rate mode : Variable
Bit rate : 114 Kbps
Minimum bit rate : 128 Kbps
Channel(s) : 2 channels
Sampling rate : 48.0 KHz
Resolution : 16 bits
Stream size : 72.6 MiB (10%)
Alignment : Aligned on interleaves
Interleave, duration : 24 ms (0.60 video frame)
Interleave, preload duration : 162 ms
Writing library : LAME3.97
Encoding settings : ABR
Language : English

Info Hash : 319F47CFF3C0B37300E7D57A4F0E7C24C820F888

http://www.imdb.com/title/tt0209077/

related torrents

Torrent name

health leech seeds Size
 

comments (0)

Main Menu