Movies - Other

Joy Ride French DvdRip DivX "VFF" ( Net)

  • Download 5x Faster
  • Download torrent
  • Direct Download
  • Rate this torrent +  |  -
Joy Ride French DvdRip DivX "VFF" ( Net)

Free and Direct Download with Usenet 300GB+ free


Torrent info

Name:Joy Ride French DvdRip DivX "VFF" ( Net)

Total Size: 700.92 MB

Magnet: Magnet Link

Seeds: 0

Leechers: 0

Stream: Watch Online @ Movie4u

Last Updated: 2010-07-25 14:38:30 (Update Now)

Torrent added: 2009-08-28 21:17:15




Torrent Files List


Joy.Ride.French.DvdRip.DivX.avi (Size: 700.92 MB) (Files: 2)

 Joy.Ride.French.DvdRip.DivX.avi

700.92 MB

 Joy.Ride.French.DvdRip.DivX.nfo

2.14 KB
 

Announce URL: http://www.quebec-team.net/announce.php

Torrent description

***ATTENTION***

Pour télécharger ce torrent, vous devez posséder un compte sur Quebec-Team ! et ensuite entrez votre passkey manuellement (http://www.quebec-team.net/announce.php?passkeyici) OU re-télécharger le torrent via le site. Merci!

***ATTENTION***

Lien d'origine : http://www.quebec-team.net/torrents/Films--DVD-RIP/torrent/Joy.Ride.French.DvdRip.DivX-_VFF_.html

[aligner=centre]Joy.Ride.French.DvdRip.DivX "VFF"[/aligner]


[aligner=centre]Joy Ride French DvdRip DivX "VFF" ( Net) preview 0[/aligner]



[aligner=centre]Joy Ride French DvdRip DivX "VFF" ( Net) preview 1[/aligner]

[aligner=centre]Les grandes vacances d'été commencent. Lewis Thomas, étudiant de première année s'apprête à traverser le pays en voiture avec Venna, la fille de ses rêves.
Mais ses visées romantiques prennent une toute autre tournure lorsqu'il s'arrête pour récupérer son raté de frère aîné, Fuller, au commissariat de police. Réputé pour semer la zizanie, ce dernier incite Lewis à utiliser sa radio CB pour monter un canular aux dépens d'un camionneur solitaire.
Ce dernier, présence invisible et terrifiante, dont on ne connaît que le surnom, "clou rouillé", compte bien être celui qui rira le dernier...[/aligner]


[aligner=centre]Joy Ride French DvdRip DivX "VFF" ( Net) preview 2[/aligner]


[aligner=centre]Origine du film : USA - Canada

Réalisateur : John Dahl

Acteurs : Matthew Kimbrough, Leelee Sobieski, Steve Zahn

Genre : Thriller/Horreur

Titre original : Joy Ride

Durée : 1h33min

Date de sortie DVD: 2002

Année de production : 2001

Distribution : Twentieth Century-Fox Film Corporation

Qualité: DvdRip

Format: DivX

Vidéo : 640*256 @ 913 kbps

Audio : Mp3- Stéréo - 128 kbps

Langue : Français "VFF"

Subs : Non

Nombre de fichiers : 2

Taille des fichiers : Film (701 Mo) - Nfo (3 Ko)

Joy.Ride.French.DvdRip.DivX

General
Complete name : Joy Ride
Format : AVI
Format/Info : Audio Video Interleave
File size : 701 MiB
Duration : 1h 33mn
Overall bit rate : 1 051 Kbps
Writing application : VirtualDubMod 1.5.4.1 (build 2117/release)
Writing library : VirtualDubMod build 2117/release

Video
Format : MPEG-4 Visual
Format settings, BVOP : Yes
Format settings, QPel : No
Format settings, GMC : No warppoints
Format settings, Matrix : Default (H.263)
Muxing mode : Packed bitstream
Codec ID : DX50
Codec ID/Hint : DivX 5
Duration : 1h 33mn
Bit rate : 914 Kbps
Width : 640 pixels
Height : 256 pixels
Display aspect ratio : 2.500
Frame rate : 25.000 fps
Resolution : 24 bits
Colorimetry : 4:2:0
Scan type : Progressive
Bits/(Pixel*Frame) : 0.223
Stream size : 609 MiB (87%)
Writing library : DivX 6.5.1 (UTC 2007-03)

Audio
Format : MPEG Audio
Format version : Version 1
Format profile : Layer 3
Codec ID : 55
Codec ID/Hint : MP3
Duration : 1h 33mn
Bit rate mode : Constant
Bit rate : 128 Kbps
Minimum bit rate : 128 Kbps
Channel(s) : 2 channels
Sampling rate : 48.0 KHz
Resolution : 16 bits
Stream size : 85.3 MiB (12%)
Alignment : Aligned on interleaves
Interleave, duration : 40 ms (1.00 video frame)
Interleave, preload duration : 504 ms
Writing library : LAME3.96r
Encoding settings : CBR[/aligner]

related torrents

Torrent name

health leech seeds Size
 

comments (0)

Main Menu