Movies - Other

Joy Ride 2 French DvdRip Xvid "VFF" ( Net)

  • Download 5x Faster
  • Download torrent
  • Direct Download
  • Rate this torrent +  |  -
Joy Ride 2 French DvdRip Xvid "VFF" ( Net)

Anonymous and Free Direct Download 300GB+


Torrent info

Name:Joy Ride 2 French DvdRip Xvid "VFF" ( Net)

Total Size: 700.23 MB

Magnet: Magnet Link

Seeds: 0

Leechers: 0

Stream: Watch Online @ Movie4u

Last Updated: 2017-07-23 05:10:32 (Update Now)

Torrent added: 2009-08-28 21:17:08



VPN For Torrents

Torrent Files List


Joy.Ride.2.French.DvdRip.Xvid.avi (Size: 700.23 MB) (Files: 1)

 Joy.Ride.2.French.DvdRip.Xvid.avi

700.23 MB
 

tracker

leech seeds
 

Torrent description

***ATTENTION***

Pour télécharger ce torrent, vous devez posséder un compte sur Quebec-Team ! et ensuite entrez votre passkey manuellement (http://www.quebec-team.net/announce.php?passkeyici) OU re-télécharger le torrent via le site. Merci!

***ATTENTION***

Lien d'origine : http://www.quebec-team.net/torrents/Films--DVD-RIP/torrent/Joy.Ride.2.French.DvdRip.Xvid-_VFF_.html

[aligner=centre][taille=7][couleur=blue]Joy.Ride.2.French.DvdRip.Xvid "VFF"[/couleur][/taille][/aligner]


[aligner=centre]Joy Ride 2 French DvdRip Xvid "VFF" ( Net) preview 0[/aligner]


[aligner=centre]Joy Ride 2 French DvdRip Xvid "VFF" ( Net) preview 1[/aligner]

[aligner=centre]Qualité: DvdRip

Format: XviD

Vidéo : 720*404 @ 946 kbps

Audio : Mp3- Stéréo - 128 kbps

Langue : Français

Subs : Non

Nombre de fichiers : 2

Taille des fichiers : Film (700 Mo) - Nfo (3 Ko)

Origine du film : USA - Canada

Réalisateur : Louis Morneau

Acteurs : Nicki Aycox, Nick Zano, Daniel Boileau

Genre : Thriller/Horreur

Titre original : Joy Ride 2 : Dead Ahead

Durée : 1h31min

Date de sortie DVD: 2009

Année de production : 2008

Distribution : 20th Century Fox[/aligner]

[aligner=centre]Joy Ride 2 French DvdRip Xvid "VFF" ( Net) preview 2[/aligner]

[aligner=centre]Partis en virée vers Las Vegas pour s'amuser et vivre quelques émotions fortes,
quatre amis s'enfoncent à leur insu dans un charnier sanglant où règnent tension, torture et terreur
primitive la plus extrême! Lorsque leur voiture tombe en panne au milieu de nulle part, ils entreprennent
de rejoindre la civilisation. Mais leur plan attire bientôt la malveillance d'un routier vengeur et meurtrier
au penchant insatiable pour les mutilations atroces et le sadisme. Et celui-ci ne reculera devant rien pour
s'assurer qu'ils paient leur dû... une partie du corps à la fois![/aligner]



Joy.Ride.2.French.DvdRip.Xvid

General
Complete name : Joy Ride 2
Format : AVI
Format/Info : Audio Video Interleave
File size : 700 MiB
Duration : 1h 31mn
Overall bit rate : 1 074 Kbps
Writing application : VirtualDubMod 1.5.10.2 Fr | www.trad-fr.com || (build 2540/release)
Writing library : VirtualDubMod build 2540/release

Video
Format : MPEG-4 Visual
Format profile : Streaming [email protected]
Format settings, BVOP : Yes
Format settings, QPel : No
Format settings, GMC : No warppoints
Format settings, Matrix : Default (H.263)
Codec ID : XVID
Codec ID/Hint : XviD
Duration : 1h 31mn
Bit rate : 937 Kbps
Width : 720 pixels
Height : 404 pixels
Display aspect ratio : 16/9
Frame rate : 23.976 fps
Resolution : 24 bits
Colorimetry : 4:2:0
Scan type : Progressive
Bits/(Pixel*Frame) : 0.134
Stream size : 611 MiB (87%)
Writing library : XviD 1.1.2 (UTC 2006-11-01)

Audio
Format : MPEG Audio
Format version : Version 1
Format profile : Layer 3
Codec ID : 55
Codec ID/Hint : MP3
Duration : 1h 31mn
Bit rate mode : Constant
Bit rate : 128 Kbps
Channel(s) : 2 channels
Sampling rate : 48.0 KHz
Resolution : 16 bits
Stream size : 83.4 MiB (12%)
Alignment : Split accross interleaves
Interleave, duration : 42 ms (1.00 video frame)
Interleave, preload duration : 500 ms
Writing library : LAME3.95

related torrents

Torrent name

health leech seeds Size
 


comments (0)

Main Menu