Movies - Other

Jennifer's Body trailer mp4

  • Download 5x Faster
  • Download torrent
  • Direct Download
  • Rate this torrent +  |  -
Jennifer's Body trailer mp4

Free and Direct Download with Usenet.nl 300GB+ free


Torrent info

Name:Jennifer's Body trailer mp4

Total Size: 7.74 MB

Magnet: Magnet Link

Seeds: 0

Leechers: 0

Stream: Watch Online @ Movie4u

Last Updated: 2015-07-15 06:04:13 (Update Now)

Torrent added: 2009-08-28 21:10:07





Torrent Files List


Jennifer's Body.mp4 (Size: 7.74 MB) (Files: 1)

 Jennifer's Body.mp4

7.74 MB
 

tracker

leech seeds
 

Torrent description

Format : MPEG-4
Format profile : Base Media / Version 2
Codec ID : mp42
File size : 7.74 MiB
Duration : 2mn 10s
Overall bit rate : 500 Kbps

Video
Format : AVC
Format/Info : Advanced Video Codec
Format profile : [email protected]
Format settings, CABAC : No
Format settings, ReFrames : 1 frame
Codec ID : avc1
Codec ID/Info : Advanced Video Coding
Duration : 2mn 9s
Bit rate mode : Variable
Bit rate : 395 Kbps
Maximum bit rate : 947 Kbps
Width : 480 pixels
Height : 270 pixels
Display aspect ratio : 16/9
Frame rate mode : Constant
Frame rate : 23.976 fps
Resolution : 24 bits
Colorimetry : 4:2:0
Scan type : Progressive
Bits/(Pixel*Frame) : 0.127
Stream size : 6.09 MiB (79%)

Audio
Format : AAC
Format/Info : Advanced Audio Codec
Format version : Version 4
Format profile : LC
Format settings, SBR : No
Codec ID : 40
Duration : 2mn 10s
Bit rate mode : Variable
Bit rate : 104 Kbps
Maximum bit rate : 190 Kbps
Channel(s) : 2 channels
Channel positions : L R
Sampling rate : 44.1 KHz
Resolution : 16 bits
Stream size : 1.61 MiB (21%)

related torrents

Torrent name

health leech seeds Size
 

comments (0)

Main Menu