Movies - Other

Hinter Gittern Der Frauenknast Staffel 2 DVDRip Xvid

  • Download 5x Faster
  • Download torrent
  • Direct Download
  • Rate this torrent +  |  -
Hinter Gittern Der Frauenknast Staffel 2 DVDRip Xvid

Free and Direct Download with Usenet.nl 300GB+ free


Torrent info

Name:Hinter Gittern Der Frauenknast Staffel 2 DVDRip Xvid

Total Size: 6.15 GB

Magnet: Magnet Link

Seeds: 0

Leechers: 0

Stream: Watch Online @ Movie4u

Last Updated: 2010-07-22 06:04:22 (Update Now)

Torrent added: 2009-08-28 20:29:44





Torrent Files List


Frauenk.jpg (Size: 6.15 GB) (Files: 20)

 Frauenk.jpg

26.45 KB

 HG-S02E27.avi

349.87 MB

 HG-S02E28.avi

349.86 MB

 HG-S02E29.avi

349.90 MB

 HG-S02E30.avi

349.88 MB

 HG-S02E31.avi

349.90 MB

 HG-S02E32.avi

349.90 MB

 HG-S02E33.avi

349.86 MB

 HG-S02E34.avi

349.87 MB

 HG-S02E35.avi

349.84 MB

 HG-S02E36.avi

349.88 MB

 HG-S02E37.avi

349.88 MB

 HG-S02E38.avi

349.87 MB

 HG-S02E39.avi

349.88 MB

 HG-S02E40.avi

349.88 MB

 HG-S02E41.avi

349.88 MB

 HG-S02E42.avi

349.87 MB

 HG-S02E43.avi

349.88 MB

 HG-S02E44.avi

349.87 MB

 nfo.nfo

3.34 KB
 

Announce URL: http://speed-dream.ath.cx//announce.php

Torrent description

Frauengefngnis Reutlitz in Berlin: Auf der Station B sitzen die Insassinnen wegen Mord, Erpressung, Raubberfall oder Betrug. Die Frauen leben in ihrer eigenen Welt, auf kleinstem Raum gefangen. Voller Emotionen, Intrigen und Hass. Umgeben von Schlieern und einer Anstaltsleitung, die oft willkrlich handelt. Die Insassinnen sehnen sich vor allem nach Liebe, Geborgenheit und einer Familie, die sie im besten Fall im Knast besuchen darf.
Das Zusammenleben der Insassinnen auf engstem Raum in dem Berliner Gefngnis verstrkt alle Konflikte - und alle Gefhle: Liebe, Eifersucht und Rache spielen hinter Gittern immer eine groe Rolle. Freundschaften und Intrigen, Frust und Aggression, Vertrauen und Verrat, die Arbeit und der Widerstand gegen die Schinderei sorgen fr starke Emotionen und fr jede Menge Zndstoff im Knast. Und auch in den Beziehungen nach "drauen".
.
.
.
.
2. Staffel:
.
27. Bittere Enttuschung
28. Gre aus Monaco
29. Machtspiele
30. Pyrrhussieg
31. Nackte Wahrheit
32. Schleichwege
33. Reingelegt
34. Feindinnen
35. Auf Leben und Tod
36. Der Neue
37. Mtter und Tchter
38. Rache
39. Neue Wege
40. Sehnsucht
41. Vertrauensbeweise
42. Auf Mnnerjagd
43. Fluchtversuche
44. Hoffen und Bangen
.
.
.
Format : AVI
Format/Info : Audio Video Interleave
Dateigre : 379 MiB
Duration : 46min
Gesamte Bitrate : 1145 Kbps
Verwendetes Programm : FairUse Wizard - http://fairusewizard.com
verwendete Encoder-Bibliothek : The best and REALLY easy backup tool
.
.
.
Format : MPEG-4 Visual
Format profile : Streaming [email protected]
Format settings, BVOP : Ja
Format settings, QPel : Nein
Format settings, GMC : No warppoints
Format settings, Matrix : Default
Muxing mode : Packet Bitstream
Codec ID : XVID
Codec ID/Hint : XviD
Duration : 46min
Bitrate : 1008 Kbps
Breite : 512 Pixel
Hhe : 416 Pixel
Bildseitenverhltnis : 5/4
Bildwiederholungsrate : 25.000 FPS
Auflsung : 8 bits
Colorimetry : 4:2:0
Scan type : Progressive
Bits/(Pixel*Frame) : 0.189
Stream size : 333 MiB (88)
verwendete Encoder-Bibliothek : XviD 1.2.0.dev47 (UTC 2006-11-01)
.
.
.
Format : MPEG Audio
Format version : Version 1
Format profile : Layer 3
Codec ID : 55
Codec ID/Hint : MP3
Duration : 46min
Bitraten-Modus : Constant
Bitrate : 128 Kbps
Minimum bit rate : 128 Kbps
Kanle : 2 Kanle
Samplingrate : 48.0 KHz
Auflsung : 16 bits
Stream size : 42.3 MiB (11)
Alignment : Aligned on interleaves
Interleave, duration : 40 ms (1.00 video frame)
Interleave, preload duration : 504 ms
verwendete Encoder-Bibliothek : LAME3.97
Kodierungseinstellungen : CBR

related torrents

Torrent name

health leech seeds Size
 

comments (0)

Main Menu