Sci-Fi

The Philadelphia Experiment[1984]DVDrip[Eng]AC3[5 1] Atlas47

  • Download 5x Faster
  • Download torrent
  • Direct Download
  • Rate this torrent +  |  -
The Philadelphia Experiment[1984]DVDrip[Eng]AC3[5 1] Atlas47

Free and Direct Download with Usenet.nl 300GB+ free


Torrent info

Name:The Philadelphia Experiment[1984]DVDrip[Eng]AC3[5 1] Atlas47

Total Size: 1.37 GB

Magnet: Magnet Link

Seeds: 0

Leechers: 0

Stream: Watch Online @ Movie4u

Last Updated: 2016-02-10 09:26:14 (Update Now)

Torrent added: 2009-08-28 19:34:09





Torrent Files List


Covers (Size: 1.37 GB) (Files: 5)

 Covers

  The Philadelphia Experiment.jpg

352.80 KB

 The Philadelphia Experiment.avi

1.37 GB

 The Philadelphia Experiment.idx

46.45 KB

 The Philadelphia Experiment.nfo

10.14 KB

 The Philadelphia Experiment.sub

4.40 MB
 

tracker

leech seeds
 

Torrent description


±±±±±±±±±±±±±±±±±±±±±±±±±±±±±±>>www.tornster.com<<±±±±±±±±±±±±±±±±±±±±±±±±±±±±±±
± ±
± INFO: ±
± ±
± General ±
± Complete name : The Philadelphia Experiment ±
± Genre : Adventure / Drama / Sci-Fi ±
± Format : AVI ±
± Format/Info : Audio Video Interleave ±
± File size : 1.37 GiB ±
± Duration : 1h 41mn ±
± Overall bit rate : 1 935 Kbps ±
± Writing application : VirtualDubMod 1.5.4.1 (build 2178/release)±
± Writing library : VirtualDubMod build 2178/release ±
± ±
± Video ±
± Format : MPEG-4 Visual ±
± Format settings, BVOP : Yes ±
± Format settings, QPel : No ±
± Format settings, GMC : No warppoints ±
± Format settings, Matrix : Default ±
± Codec ID : DX50 ±
± Codec ID/Hint : DivX 5 ±
± Duration : 1h 41mn ±
± Bit rate : 1 479 Kbps ±
± Width : 704 pixels ±
± Height : 384 pixels ±
± Display aspect ratio : 16/9 ±
± Frame rate : 25.000 fps ±
± Resolution : 24 bits ±
± Colorimetry : 4:2:0 ±
± Scan type : Progressive ±
± Bits/(Pixel*Frame) : 0.219 ±
± Stream size : 1.05 GiB (76%) ±
± Writing library : DivX 2816 ±
± ±
± Audio ±
± Format : AC-3 ±
± Format/Info : Audio Coding 3 ±
± Codec ID : 2000 ±
± Duration : 1h 41mn ±
± Bit rate mode : Constant ±
± Bit rate : 448 Kbps ±
± Channel(s) : 6 channels ±
± Channel positions : Front: L C R, Surround: L R, LFE ±
± Sampling rate : 48.0 KHz ±
± Stream size : 324 MiB (23%) ±
± Alignment : Split accross interleaves ±
± Interleave, duration : 80 ms (2.00 video frames) ±
± Interleave, preload duration : 500 ms ±
± Language : English ±
± Subtitles : English ±
± ±
± IMDb Rating : 6.1/10 ±
± IMDb URL : http://www.imdb.com/title/tt0087910/ ±
± ±
±°°°°°°°°°°°°°°°°°°°°°°°°°°°°°°°°°°°°°°°°°°°°°°°°°°°°°°°°°°°°°°°°°°°°°°°°°°°°°°±
± ±
± Philadelphia, 1943: A top-secret experiment is underway to make U.S. Navy ±
± ships invisible to enemy radar, but something goes horribly wrong, and the ±
± Battleship Eldridge disappears. Two silors jump overboard... and are ±
± mysteriously transported 41 years into the future. On the run and trapped by ±
± the past, can they stop the experiment that has torn a hole in time? ±
± ±
± ±
± ±
± ±
± ±
± ±
±°°°°°°°°°°°°°°°°°°°°°°°°°°°°°°°°°°°°°°°°°°°°°°°°°°°°°°°°°°°°°°°°°°°°°°°°°°°°°°±
± ±
± CAST: ±
± ±
± Michael Pare...............David Herdeg ±
± Nancy Allen................Allison Hayes ±
± Eric Christmas.............Dr. James Longstreet ±
± Bobby Di Cicco.............Jim Parker ±
± Louise Latham..............Pamela ±
± Kene Holliday..............Major Clark ±
± Joe Dorsey.................Sheriff Bates ±
± ±
±°°°°°°°°°°°°°°°°°°°°°°°°°°°°°°°°°°°°°°°°°°°°°°°°°°°°°°°°°°°°°°°°°°°°°°°°°°°°°°±
± ±
± Please remember to seed ±
± ±
± Standalone Enabled ±
± ±
± www.tornster.com ±
± ±
±±±±±±±±±±±±±±±±±±±±±±±±±±±±±±±±±±±±±±±±±±±±±±±±±±±±±±±±±±±±±±±±±±±±±±±±±±±±±±±±

related torrents

Torrent name

health leech seeds Size
 

comments (0)

Main Menu