Kids

L Era Glaciale 3 L Alba Dei Dinosauri 2009 iTALiAN MD DVDScr ([email protected])[survivalofmisa]

  • Download 5x Faster
  • Download torrent
  • Direct Download
  • Rate this torrent +  |  -

Torrent info

Name:L Era Glaciale 3 L Alba Dei Dinosauri 2009 iTALiAN MD DVDScr ([email protected])[survivalofmisa]

Total Size: 701.10 MB

Magnet: Magnet Link

Seeds: 4

Leechers: 2

Stream: Watch Online @ Movie4u

Last Updated: 2015-08-29 16:02:47 (Update Now)

Torrent added: 2009-08-28 19:33:42





Torrent Files List


L.Era.Glaciale.3.L.Alba.Dei.Dinosauri.2009.iTALiAN.MD.DVDScr.([email protected])[survivalofmisa].avi (Size: 701.10 MB) (Files: 1)

 L.Era.Glaciale.3.L.Alba.Dei.Dinosauri.2009.iTALiAN.MD.DVDScr.([email protected])[survivalofmisa].avi

701.10 MB
 

tracker

leech seeds
 

Torrent description

[code]General
Complete name : L.Era.Glaciale.3.L.Alba.Dei.Dinosauri.2009.iTALiAN.MD.DVDScr.([email protected])[survivalofmisa].avi
Format : AVI
Format/Info : Audio Video Interleave
File size : 701 MiB
Duration : 1h 30mn
Overall bit rate : 1 087 Kbps
Writing application : Nandub v1.0rc2
Writing library : Nandub build 1853/release

Video
ID : 0
Format : MPEG-4 Visual
Format profile : [email protected]
Format settings, BVOP : Yes
Format settings, QPel : No
Format settings, GMC : No warppoints
Format settings, Matrix : Default (H.263)
Codec ID : XVID
Codec ID/Hint : XviD
Duration : 1h 30mn
Bit rate : 947 Kbps
Width : 640 pixels
Height : 352 pixels
Display aspect ratio : 16/9
Frame rate : 25.000 fps
Resolution : 24 bits
Colorimetry : 4:2:0
Scan type : Progressive
Bits/(Pixel*Frame) : 0.168
Stream size : 611 MiB (87%)
Writing library : XviD 1.1.2 (UTC 2006-11-01)

Audio
ID : 1
Format : MPEG Audio
Format version : Version 1
Format profile : Layer 3
Codec ID : 55
Codec ID/Hint : MP3
Duration : 1h 30mn
Bit rate mode : Constant
Bit rate : 128 Kbps
Channel(s) : 2 channels
Sampling rate : 44.1 KHz
Resolution : 16 bits
Stream size : 82.6 MiB (12%)
Alignment : Aligned on interleaves
Interleave, duration : 26 ms (0.65 video frame)
Interleave, preload duration : 496 ms
[/code]



www.survivalofmisa.altervista.org

related torrents

Torrent name

health leech seeds Size
 

comments (0)

Main Menu