Movies - Other

Daisies 1966 DVDRip x264 AC3 KARiNA

  • Download 5x Faster
  • Download torrent
  • Direct Download
  • Rate this torrent +  |  -
Daisies 1966 DVDRip x264 AC3 KARiNA

Anonymous and Direct Download 300GB+ free


Torrent info

Name:Daisies 1966 DVDRip x264 AC3 KARiNA

Total Size: 1.13 GB

Magnet: Magnet Link

Seeds: 0

Leechers: 0

Stream: Watch Online @ Movie4u

Last Updated: 2012-12-25 00:25:21 (Update Now)

Torrent added: 2009-08-28 18:07:48




Torrent Files List


daisies-KARiNA.nfo (Size: 1.13 GB) (Files: 2)

 daisies-KARiNA.nfo

5.22 KB

 Daisies.1966.DVDRip.x264.AC3-KARiNA.mkv

1.13 GB
 

Announce URL:

Torrent description

88 a8P db 88888888ba 88 888b 88 db
88 ,88' d88b 88 "8b "" 8888b 88 d88b
88 ,88" d8'`8b 88 ,8P 88 `8b 88 d8'`8b
88,d88' d8' `8b 88aaaaaa8P' 88 88 `8b 88 d8' `8b
8888"88, d8YaaaaY8b 88""""88' 88 88 `8b 88 d8YaaaaY8b
88P Y8b d8""""""""8b 88 `8b 88 88 `8b 88 d8""""""""8b
88 "88, d8' `8b 88 `8b 88 88 `8888 d8' `8b
88 Y8b d8' `8b 88 `8b 88 88 `888 d8' `8b
-------------------------------------------------------------------------------
-------------------------------------
[ Daisies.1966.DVDRip.x264.AC3-KARiNA.mkv ]
-------------------------------------

==================================[ Synopsis ]==================================

Daisies [Sedmikrasky] | Czech Republic | 1966 | Directed by Vera Chytilova

An exercise in avant-garde cinema that is freshly humorous and accessible, Daisies
is a dark comedy that eschews a traditional narrative for a Dadaist construction of
events. Perpetually dressed in vibrantly corresponding costumes and dark black
eyeliner, Marie and Marie work together to create mischief. Seeing the world ruined
and values worthless, they decide to "go bad." They stage various dinner dates with
stale old men, eat and drink merrily while telling lies, and, in a fast-motion
Chaplinesque bit of slapstick, they hop trains and lose the men. Always looking for
new adventures, the girls get drunk at a nightclub and get kicked out in a grand
physical comedy style. They sit around their apartment and destroy things with a
deadpan whimsy, apathetic to the men professing their love. Pursuing adventure about
town, the two Maries take a dumbwaiter up to a banquet hall and proceed to
delightfully demolish it. Using both black-and-white and color film stock, the girls'
antics are enhanced by innovative special effects and camera tricks by cinematographer
Jaroslav Kucera. Historically a key film in the Czech New Wave movement, Daisies was
banned and director Vera Chytilov?was forbidden to work until 1975.

[ IMdB: http://www.imdb.com/title/tt0060959/ | Rating: 7.6 / 10 (1,026 votes) ]

=================================[ General ]===================================

Complete name : Daisies.1966.DVDRip.x264.AC3-KARiNA.mkv
Format : Matroska
File size : 1.13 GiB
Duration : 1h 12mn
Overall bit rate : 2 226 Kbps
Source : Second Run PAL DVD9

=================================[ Video ]=====================================


Format : AVC
Codec ID : V_MPEG4/ISO/AVC
Bit rate : 1 956 Kbps
Nominal bit rate : 2 000 Kbps
Width : 720 pixels
Height : 576 pixels
Display aspect ratio : 4/3
Frame rate : 25.000 fps
Standard : PAL
Resolution : 24 bits
Colorimetry : 4:2:0
Scan type : Progressive
Bits/(Pixel*Frame) : 0.189
Stream size : 1 020 MiB (88%)
Title : Track 1
Writing library : x264 core 65

=================================[ Audio ]=====================================

Format : AC-3
Codec ID : A_AC3
Bit rate mode : Constant
Bit rate : 224 Kbps
Channel(s) : 2 channels
Channel positions : L R
Sampling rate : 48.0 KHz
Stream size : 117 MiB (10%)
Title : Track 1
Language : Czech

=================================[ Subtitles ]=================================

Format : UTF-8
Codec ID : S_TEXT/UTF8
Title : Track 1
Language : English

=================================[ Chapters ]==================================

00:00:00.000 : :Chapter 1
00:05:23.480 : :Chapter 2
00:13:37.480 : :Chapter 3
00:24:09.280 : :Chapter 4
00:35:28.920 : :Chapter 5
00:42:10.880 : :Chapter 6
00:46:43.880 : :Chapter 7
00:52:58.280 : :Chapter 8
00:57:54.680 : :Chapter 9
01:05:12.000 : :Chapter 10

=================================[ KARiNA ]===================================

related torrents

Torrent name

health leech seeds Size
 


comments (0)

Main Menu