Movies - Other

Cursed French DvdRip XviD ( Net)

  • Download 5x Faster
  • Download torrent
  • Direct Download
  • Rate this torrent +  |  -
Cursed French DvdRip XviD ( Net)

Anonymous and Free Direct Download 300GB+


Torrent info

Name:Cursed French DvdRip XviD ( Net)

Total Size: 693.96 MB

Magnet: Magnet Link

Seeds: 0

Leechers: 0

Stream: Watch Online @ Movie4u

Last Updated: 2010-04-20 20:15:49 (Update Now)

Torrent added: 2009-08-28 18:05:19



VPN For Torrents

Torrent Files List


Cursed.French.DvdRip.XviD.avi (Size: 693.96 MB) (Files: 2)

 Cursed.French.DvdRip.XviD.avi

693.96 MB

 Cursed.French.DvdRip.XviD.nfo

2.03 KB
 

Announce URL: http://www.quebec-team.net/announce.php

Torrent description

***ATTENTION***

Pour télécharger ce torrent, vous devez posséder un compte sur Quebec-Team ! et ensuite entrez votre passkey manuellement (http://www.quebec-team.net/announce.php?passkeyici) OU re-télécharger le torrent via le site. Merci!

***ATTENTION***

Lien d'origine : http://www.quebec-team.net/torrents/Films--DVD-RIP/torrent/Cursed.French.DvdRip.XviD.html

Cursed.French.DvdRip.XviD


Cursed French DvdRip XviD ( Net) preview 0

Cursed French DvdRip XviD ( Net) preview 1

Cursed French DvdRip XviD ( Net) preview 2

Origine du film : USA

Réalisateur : Wes Craven

Acteurs : Christina Ricci, Joshua Jackson, Jesse Eisenberg

Genre : Epouvante-Horreur

Titre original : Cursed

Durée : 1h39min

Date de sortie DVD: 2006

Année de production : 2005

Distribution : TF1 Vidéo

Qualité: DdvRip

Format: XviD

Vidéo : [email protected] Kbps

Audio : Mp3-Stéréo-128 Kbps

Langue : Français

Subs : Non

Nombre de fichiers : 2

Taille des fichiers : Film (693 Mo) - Nfo (3 Ko)

Taille de l'upload : 693 Mo




Cursed French DvdRip XviD ( Net) preview 3


Un loup-garou errant dans Los Angeles transforme la vie de trois adolescents qui, après avoir été contaminés par
la bête, devront parvenir à la tuer dans l'espoir de changer leur destin.
Ellie et Jimmy vivent seuls depuis la mort de leurs parents. Elle travaille pour une chaine de télévision et lui
est encore au lycée. Un soir, en rentrant chez eux, ils percutent un animal et ont un accident de voiture avec
leur chien, Zipper. De la, un loup garou les attaque et les griffe. C'est ainsi qu'ils sont contaminés et vont
peu à peu, devoir empêcher la malédicction du loup garou de se réaliser.
Ellie, Jimmy et Bo vont devoir découvrir qui est le loup garou avant qu'il ne soit trop tard...





-------------------------------------------------------------------------------
General Information
-------------------------------------------------------------------------------



Video Format.........: AVI
Video Bitrate........: 64
Codec URL............: xvid
Resolution...........: 640 x 480
Color................: 24 bit
Source...............: DVD 16x9
Original Format......: PAL
Genre................: Action

-------------------------------------------------------------------------------
Release Notes
-------------------------------------------------------------------------------
Cursed.French.DvdRip.XviD

General
Complete name : Cursed
Format : AVI
Format/Info : Audio Video Interleave
File size : 694 MiB
Duration : 1h 39mn
Overall bit rate : 977 Kbps
Writing application : Nandub v1.0rc2
Writing library : Nandub build 1852/release

Video
Format : MPEG-4 Visual
Format profile : Streaming [email protected]
Format settings, BVOP : Yes
Format settings, QPel : No
Format settings, GMC : No warppoints
Format settings, Matrix : Default (H.263)
Muxing mode : Packed bitstream
Codec ID : XVID
Codec ID/Hint : XviD
Duration : 1h 39mn
Bit rate : 840 Kbps
Width : 640 pixels
Height : 272 pixels
Display aspect ratio : 2.35
Frame rate : 23.976 fps
Resolution : 24 bits
Colorimetry : 4:2:0
Scan type : Progressive
Bits/(Pixel*Frame) : 0.201
Stream size : 597 MiB (86%)
Writing library : XviD 1.0.3 (UTC 2004-12-20)

Audio
Format : MPEG Audio
Format version : Version 1
Format profile : Layer 3
Codec ID : 55
Codec ID/Hint : MP3
Duration : 1h 39mn
Bit rate mode : Variable
Bit rate : 124 Kbps
Channel(s) : 2 channels
Sampling rate : 48.0 KHz
Resolution : 16 bits
Stream size : 88.2 MiB (13%)
Alignment : Aligned on interleaves
Interleave, duration : 24 ms (0.58 video frame)
Interleave, preload duration : 298 ms




-------------------------------------------------------------------------------
Generated with Cool NFO Creator - http://fly.to/coolbeans
-------------------------------------------------------------------------------

related torrents

Torrent name

health leech seeds Size

Cursed French Dvd Rip

1 0 693.00 MB 0
 


comments (0)

Main Menu