Movies - Other

Coffee And Cigarettes VF

  • Download 5x Faster
  • Download torrent
  • Direct Download
  • Rate this torrent +  |  -
Coffee And Cigarettes VF

Free and Direct Download with Usenet.nl 300GB+ free


Torrent info

Name:Coffee And Cigarettes VF

Total Size: 699.13 MB

Magnet: Magnet Link

Seeds: 0

Leechers: 0

Stream: Watch Online @ Movie4u

Last Updated: 2014-02-05 07:57:43 (Update Now)

Torrent added: 2009-08-28 17:47:04





Torrent Files List


Coffee And Cigarettes.avi (Size: 699.13 MB) (Files: 1)

 Coffee And Cigarettes.avi

699.13 MB
 

Announce URL:

Torrent description

***ATTENTION*** pour que ce torrent fonctionne vous devez posséder un compte sur www.torrent411.com et ensuite entrez votre passkey manuellement (torrent411.com:56969/passkeyici/announce) ou re-télécharger le torrent du site. Merci! ***ATTENTION***

[flash]http://www.filehost.reloadparadise-files.net/files/1217534351.swf[/flash][dailymotion]http://www.dailymotion.com/swf/x435mu&related=1[/dailymotion]

[size=6][font=comic]Coffee And Cigarettes[/font][color=red][font=comic] VF[/font][/size][/color]

[audio]http://www.reload-paradise.net/flash/flashplayer.swf?son=http://www.filehost.reloadparadise-files.net/files/1217576745.mp3&autostart=1[/audio]

[color=DarkGreen][size=5][font=comic]Infos[/font][/size][/color]

[size=4][color=darkblue][font=comic]Sortie[/font]: [/color][color=ForestGreen][font=comic]07 Avril 2004[/font][/size][/color]

[size=4][font=comic]Film américain ( indépendant ) de Jim Jarmusch[/font][/size]
Coffee And Cigarettes VF preview 0
[color=DarkGreen][size=5][font=comic]Synopsis[/font][/size][/color]

[color=Navy][size=4][font=comic] Ce film est une série noir et blanc de saynètes comiques, dans un ensemble construit afin de créer un effet assez diversifié, comme Paris dans les années 20 ou l'utilisation de la nicotine comme insecticide. Tout cela a lieu tranquillement dans un café, avec la fumée de cigarettes en fond. Pendant que le film fouille dans l'anormal de notre monde d'un point de vue étonnant, il montre ce que peuvent être les hantises, les joies et les penchants de la vie.[/font][/size][/color]

[color=DarkGreen][size=5][font=comic]Saynètes[/font][/size][/color]

[size=4][color=Maroon]-[/color][color=DarkSlateGray][font=comic] Strange to Meet You:[/font][/color][color=DarkCyan][font=comic] Roberto Benigni et Steven Wright[/font][/color]
[color=Maroon]-[/color][color=DarkSlateGray][font=comic] Twins:[/font][/color][color=DarkCyan][font=comic] Joie Lee, Cinqué Lee et Steve Buscemi[/font][/color]
[color=Maroon]-[/color][color=DarkSlateGray][font=comic] Somewhere in California:[/font][/color][color=DarkCyan][font=comic] Iggy Pop et Tom Waits[/font][/color]
[color=Maroon]-[/color][color=DarkSlateGray][font=comic] Those Things'll Kill Ya:[/font][/color][color=DarkCyan][font=comic] Joseph Rigano, Vinny Vella et Vinny Vella Junior[/font][/color]
[color=Maroon]-[/color][color=DarkSlateGray][font=comic] Renée:[/font][/color][color=DarkCyan][font=comic] Renee French et E.J. Rodriguez[/font][/color]
[color=Maroon]-[/color][color=DarkSlateGray][font=comic] No Problem:[/font][/color][color=DarkCyan][font=comic] Alex Descas et Isaac de Bankolé[/font][/color]
[color=Maroon]-[/color][color=DarkSlateGray][font=comic] Cousins:[/font][/color][color=DarkCyan][font=comic] Cate Blanchett (qui joue à la fois Kate et Shelly) et Mike Hogan[/font][/color]
[color=Maroon]-[/color][color=DarkSlateGray][font=comic] Jack Shows Meg His Tesla Coil:[/font][/color][color=DarkCyan][font=comic] Jack White et Meg White[/font][/color]
[color=Maroon]-[/color][color=DarkSlateGray][font=comic] Cousins ?:[/font][/color][color=DarkCyan][font=comic] Alfred Molina, Steve Coogan, Katy Hansz[/font][/color]
[color=Maroon]-[/color][color=DarkSlateGray][font=comic] Delirium:[/font][/color][color=DarkCyan][font=comic] GZA, RZA, Bill Murray[/font][/color]
[color=Maroon]-[/color][color=DarkSlateGray][font=comic] Champagne:[/font][/color][color=DarkCyan][font=comic] William Rice et Taylor Mead[/font][/size][/color]

Coffee And Cigarettes VF preview 1

[color=DarkGreen][size=5][font=comic]Technique[/font][/size][/color]

[color=Chocolate][size=4][font=comic]Géneral[/font][/size][/color]

Format : AVI
Format/Info : Audio Video Interleave
File size : 699 MiB
Duration : 1h 31mn
Overall bit rate : 1065 Kbps
Writing application : Nandub v1.0rc2
Writing library : Nandub build 1852/release

[color=GoldenRod][size=4][font=comic]Video[/font][/size][/color]

Format : MPEG-4 Visual
Format profile : Streaming [email protected]
Format settings, BVOP : Yes
Format settings, QPel : No
Format settings, GMC : No warppoints
Format settings, Matrix : Default
Codec ID : XVID
Codec ID/Hint : XviD
Duration : 1h 31mn
Bit rate : 925 Kbps
Width : 576 pixels
Height : 320 pixels
Display aspect ratio : 16/9
Frame rate : 25.000 fps
Resolution : 8 bits
Colorimetry : 4:2:0
Scan type : Progressive
Bits/(Pixel*Frame) : 0.201
Stream size : 607 MiB (87%)
Writing library : XviD 1.0.1 (UTC 2004-06-05)

[color=OrangeRed][size=4][font=comic]Audio[/font][/size][/color]

Format : MPEG Audio
Format version : Version 1
Format profile : Layer 3
Codec ID : 55
Codec ID/Hint : MP3
Duration : 1h 31mn
Bit rate mode : Constant
Bit rate : 128 Kbps
Channel(s) : 2 channels
Sampling rate : 44.1 KHz
Resolution : 16 bits
Stream size : 84.0 MiB (12%)
Alignment : Aligned on interleaves
Interleave, duration : 26 ms (0.65 video frame)
Interleave, preload duration : 496 ms


[color=red][size=5][font=comic]Version Française[/font][/size][/color]

[size=5][font=comic][color=blue]ZaPoPeR[/font][/size][/color]

[color=DarkCyan][size=4][font=comic]Bon Partage à tous...Merci !!![/font][/size][/color]

related torrents

Torrent name

health leech seeds Size
 

comments (0)

Main Menu