Movies - Other

CJ7 STV DVDRIP XVID FLF

  • Download 5x Faster
  • Download torrent
  • Direct Download
  • Rate this torrent +  |  -
CJ7 STV DVDRIP XVID FLF

Free and Direct Download with Usenet 300GB+ free


Torrent info

Name:CJ7 STV DVDRIP XVID FLF

Total Size: 699.29 MB

Magnet: Magnet Link

Seeds: 0

Leechers: 0

Stream: Watch Online @ Movie4u

Last Updated: 2010-02-13 13:22:18 (Update Now)

Torrent added: 2009-08-28 17:41:34




Torrent Files List


CJ7.STV.DVDRIP.XVID-FLF.avi (Size: 699.29 MB) (Files: 4)

 CJ7.STV.DVDRIP.XVID-FLF.avi

699.19 MB

 CJ7.STV.DVDRIP.XVID-FLF.ENG.srt

45.81 KB

 CJ7.STV.DVDRIP.XVID-FLF.FR.srt

46.29 KB

 CJ7.STV.DVDRIP.XVID-FLF.nfo

12.91 KB
 

Announce URL: http://tracker.thepiratebay.org:80/announce

Torrent description

CJ7 STV DVDRIP XVID FLF preview 0

CJ7 Language : Cantonese

Action | Comedy Release Date : 05/03/2009

2008 1H28MIN Subtitles : FR / ENG


6.6/10 (700 votes)

http://www.imdb.com/title/tt1326972/

***************************************************************************************
General
Complete name : CJ7.STV.DVDRIP.XVID-FLF
Format : AVI
Format/Info : Audio Video Interleave
File size : 699 MiB
Duration : 1h 28mn
Overall bit rate : 1 106 Kbps

Video
Format : MPEG-4 Visual
Format profile : Simple@L3
Format settings, BVOP : Yes
Format settings, QPel : No
Format settings, GMC : No warppoints
Format settings, Matrix : Default
Muxing mode : Packed bitstream
Codec ID : XVID
Codec ID/Hint : XviD
Duration : 1h 28mn
Bit rate : 932 Kbps
Width : 656 pixels
Height : 272 pixels
Display aspect ratio : 2.412
Frame rate : 23.976 fps
Resolution : 24 bits
Colorimetry : 4:2:0
Scan type : Progressive
Bits/(Pixel*Frame) : 0.218
Stream size : 589 MiB (84%)
Writing library : XviD 1.0.3 (UTC 2004-12-20)

Audio
Format : MPEG Audio
Format version : Version 1
Format profile : Layer 3
Codec ID : 55
Codec ID/Hint : MP3
Duration : 1h 28mn
Bit rate mode : Variable
Bit rate : 162 Kbps
Nominal bit rate : 160 Kbps
Channel(s) : 2 channels
Sampling rate : 48.0 KHz
Resolution : 16 bits
Stream size : 102 MiB (15%)
Alignment : Aligned on interleaves
Interleave, duration : 24 ms (0.58 video frame)
Interleave, preload duration : 113 ms
Writing library : LAME3.90.
Encoding settings : ABR
**************************************************************************************
USE VLC HARDWARE FOR LOOKING THIS OPTION > PARAMETERS > SUBTITLES

related torrents

Torrent name

health leech seeds Size
 

comments (0)

Main Menu