Movies - Other

Cary Grant_The Talk Of The Town_1942_by drTucker

  • Download 5x Faster
  • Download torrent
  • Direct Download
  • Rate this torrent +  |  -
Cary Grant_The Talk Of The Town_1942_by drTucker

Anonymous and Free Direct Download 300GB+


Torrent info

Name:Cary Grant_The Talk Of The Town_1942_by drTucker

Total Size: 745.42 MB

Magnet: Magnet Link

Seeds: 14

Leechers: 7

Stream: Watch Online @ Movie4u

Last Updated: 2010-12-26 21:24:54 (Update Now)

Torrent added: 2009-08-28 17:24:07



VPN For Torrents

Torrent Files List


The Talk Of The Town.avi (Size: 745.42 MB) (Files: 2)

 The Talk Of The Town.avi

745.31 MB

 The Talk Of The Town.srt

108.36 KB
 

Announce URL: http://tracker.openbittorrent.com:80/announce

Torrent description

IMDB link :- http://www.imdb.com/title/tt0035417

File size : 745 MiB
Duration : 1h 52min

Video:-
Codec ID : XVID
Bit rate : 854 Kbps
Display aspect ratio : 4/3
Frame Size : 512*392 pixels
Frame rate : 25 fps
Stream size : 686 MiB (92%)

Audio:-
Format : MPEG Layer 3
Nominal bit rate : 64.0 Kbps
Channel(s) : 1 channel
Sampling rate : 48.0 KHz
Stream size : 48.6 MiB (7%)

Full seeding at 1 to 3 am GMT.

related torrents

Torrent name

health leech seeds Size
 


comments (0)

Main Menu