DVD-R

Karas The Prophecy avi

  • Download 5x Faster
  • Download torrent
  • Direct Download
  • Rate this torrent +  |  -
Karas The Prophecy avi

Download direct - no client needed


Torrent info

Name:Karas The Prophecy avi.torrent

Seeds: 0

Leechers: 0

Available: Watch Online @ Movie4u

Total Size: 735.78 MB

Downloaded: 213

Torrent added: 2009-08-24 00:15:18

Last Updated: 2013-02-14 00:52:01 (Update Now)

Share:Bookmark and Share



Torrent Files List


Karas The Prophecy.avi (Size: 735.78 MB) (Files: 1)

 Karas The Prophecy.avi

735.78 MB
 

Announce URL:

Torrent description

General
Complete name : Karas The Prophecy
Year : 2005
Director : Kei'ichi Sato
Imdb : http://www.imdb.com/title/tt0809927/

Format : AVI
Format/Info : Audio Video Interleave
File size : 736 MiB
Duration : 1h 19mn
Overall bit rate : 1 288 Kbps
Writing application : Lavf52.17.0

Video
Format : AVC
Format/Info : Advanced Video Codec
Format profile : Baseline@L1.3
Format settings, CABAC : No
Format settings, ReFrames : 1 frame
Codec ID : H264
Duration : 1h 19mn
Bit rate : 829 Kbps
Nominal bit rate : 769 Kbps
Width : 704 pixels
Height : 400 pixels
Display aspect ratio : 16/9
Frame rate : 29.970 fps
Resolution : 24 bits
Colorimetry : 4:2:0
Scan type : Progressive
Bits/(Pixel*Frame) : 0.098
Stream size : 473 MiB (64%)
Writing library : x264 core 60

Audio
Format : AC-3
Format/Info : Audio Coding 3
Codec ID : 2000
Duration : 1h 19mn
Bit rate mode : Constant
Bit rate : 448 Kbps
Channel(s) : 6 channels
Channel positions : Front: L C R, Surround: L R, LFE
Sampling rate : 48.0 KHz
Stream size : 256 MiB (35%)
Alignment : Aligned on interleaves
Interleave, duration : 32 ms (0.96 video frame)

Plot
In a Japanese city haunted by nature spirits and demons, a secret
war is raging between the renegade demon Eko and a spectral warrior
known as the Karas. Eko has mechanized himself and his followers to
defend against the unearthly fury of the Karas; in addition to an
armored humanoid form, the Karas can transform into any of various
heavily armed and armored vehicles. Eko and his followers prefer to
live in the material realm in human form, but to continue doing so
they must feed on the fluids of human bodies. Their periodic feasts
result in massacres that leave only a single traumatized survivor;
these "inexplicable" tragedies are the obsession of a marginalized
police inspector whose daughter was the survivor of one such massacre.
Opposing Eko are the renegade demon Nue, who also lives in the material
world in human form but refuses to drink blood or take a mechanized form,
and Otoha, a former human who is summoned by the mysterious Yurine to
become the new Karas

related torrents

Torrent name

health leech seeds Size

Karas The Prophecy 2006

3 0 735.78 MB 0

Karas The Prophecy (eng)

0 0 523.00 MB 0
 

comments (0)

Main Menu