Family

DVD RiP CHAK DE! INDIA Tamil, English & More Subs HINDI

  • Download 5x Faster
  • Download torrent
  • Direct Download
  • Rate this torrent +  |  -


Torrent info

Name:DVD RiP CHAK DE! INDIA Tamil, English & More Subs HINDI.torrent

Seeds: 0

Leechers: 0

Available: Watch Online @ Movie4u

Total Size: 1.44 GB

Downloaded: 1235

Torrent added: 2008-12-06 20:34:35

Last Updated: 0000-00-00 00:00:00 (Update Now)

Share:Bookmark and Share



Torrent Files List


[DVD-RiP] Chak De! India [Tamil, English & More Sub's].avi (Size: 1.44 GB) (Files: 3)

 [DVD-RiP] Chak De! India [Tamil, English & More Sub's].avi

1.38 GB

 [DVD-RiP] Chak De! India [Tamil, English & More Sub's].idx

743.90 KB

 [DVD-RiP] Chak De! India [Tamil, English & More Sub's].sub

63.37 MB
 

Announce URL:

Torrent description

...::: CHAK DE! INDIA :::...
[Tamil, Malayalam, English Subtitles]


...::: Movie Info :::...
Starring : Shahrukh Khan, Vidya Malvade, Tanya Abrol
Director : Shimit Amin
Music : Salim Merchant & Sulaiman Merchant
Language : Hindi
Year : 2007

...::: General Info :::...
Format : AVI
File size : 1.38 GiB
Duration : 2h 28mn
Overal bit rate : 1326 Kbps

...::: Video Info :::...
Format : MPEG-4 Visual
Codec ID : XVID
Duration : 2h 28mn
Bit rate : 1187 Kbps
Width : 672 pixels
Height : 288 pixels
Display aspect ratio : 2.35
Frame rate : 29.970 fps
Resolution : 8 bits
Scan type : Progressive
Stream size : 1.23 GiB (89%)

...::: Audio Info :::...
Format : MPEG Audio
Codec ID : MP3
Duration : 2h 28mn
Bit rate mode : Constant
Bit rate : 128 Kbps
Channel(s) : 2 channels
Sampling rate : 44.1 KHz
Resolution : 16 bits
Stream size : 136 MiB (10%

related torrents

Torrent name

health leech seeds Size
 

comments (0)

Main Menu