Comedy

The Parole Officer (2001) DVDRip MP3 ENG

  • Download 5x Faster
  • Download torrent
  • Direct Download
  • Rate this torrent +  |  -
The Parole Officer (2001) DVDRip MP3 ENG

Download direct - no client needed


Torrent info

Name:The Parole Officer (2001) DVDRip MP3 ENG.torrent

Seeds: 0

Leechers: 0

Available: Watch Online @ Movie4u

Total Size: 700.03 MB

Downloaded: 134

Torrent added: 2008-11-05 00:37:05

Last Updated: 2014-02-14 06:16:38 (Update Now)

Share:Bookmark and Share



Torrent Files List


The Parole Officer (2001) - DVDRip - MP3 - ENG.avi (Size: 700.03 MB) (Files: 3)

 The Parole Officer (2001) - DVDRip - MP3 - ENG.avi

700.02 MB

 The Parole Officer (2001) - DVDRip - MP3 - ENG.nfo

11.27 KB

 Tracked_by_Demonoid_com.txt

0.03 KB
 

Announce URL:

Torrent description

The Parole Officer (2001)

IMDb: http://www.imdb.com/title/tt0283534
User Rating: 6.4/10 2,487 votes
Release Date: 10 August 2001 (UK) more
Genre: Comedy | Crime more
Tagline: Steve Coogan Is....[The Parole Officer]

Plot: Failed parole officer Steve Garden (Coogan) is framed for a murder committed by
one of Manchester's leading police constables. The only evidence proving his innocence
is a CCTV video tape locked inside a bank vault. With the help of four inept ex-criminals
and token love interest Emma (Lena Headey), Garden must break into the bank and steal the
CCTV footage in order to clear his name.

Cast: (Cast overview, first billed only)

Steve Coogan ... Simon Garden
Emma Gilmour ... Secretary
Susan Jane Tanner ... Stern Woman
Iain Mitchell ... Tribunal Chairman
James Smith ... Tribunal Man
Om Puri ... George
Steven Waddington ... Jeff
Ben Miller ... Colin
Emma Williams ... Kirsty
Stephen Dillane ... Inspector Burton
Bruce McGregor ... First Policeman
Lena Headey ... Emma
Justin Burrows ... Mills
Marc Goodhall ... Death / Student (as Marc Goodall)
Clive Kneller ... Deacon


Screenshots:
The Parole Officer (2001)   DVDRip   MP3   ENG preview 0
The Parole Officer (2001)   DVDRip   MP3   ENG preview 1
The Parole Officer (2001)   DVDRip   MP3   ENG preview 2
The Parole Officer (2001)   DVDRip   MP3   ENG preview 3



General
Complete name : The Parole Officer (2001) - DVDRip - MP3 - ENG.avi
Format : AVI
Source : PAL DVD R2
File size : 700 MiB
Duration : 1h 30mn
Overal bit rate : 1086 Kbps
Language : English

Video
Codec ID : XVID
Duration : 1h 30mn
Bit rate : 951 Kbps
Width : 608 pixels
Height : 352 pixels
Display aspect ratio : 16/9
Frame rate : 25.000 fps
Resolution : 8 bits
Colorimetry : 4:2:0
Scan type : Progressive
Bits/(Pixel*Frame) : 0.178
Stream size : 613 MiB (88%)

Audio
Format : MPEG Audio
Format profile : Layer 3
Codec ID/Hint : MP3
Duration : 1h 30mn
Bit rate mode : Constant
Bit rate : 128 Kbps
Channel(s) : 2 channels
Sampling rate : 48.0 KHz
Resolution : 16 bits
Stream size : 82.5 MiB (12%)
Writing library : LAME3.97
Encoding settings : CBR


Trackers:
http://inferno.demonoid.com:3398/announce
http://tpb.tracker.thepiratebay.org:80/announce
http://bandit.ukb-kvcd.com:5600/announce
http://www.torrent-downloads.to:5869/announce
http://vip.tracker.thepiratebay.org/announce


Info Hash: 6A8E64E8E32F583095659326EC5C3B740943FB7E


Enjoy

related torrents

Torrent name

health leech seeds Size

The Parole Officer

0 0 698.00 MB 0
 

comments (0)

Main Menu