Movies - Other

Smurfs The Lost Village 2017 3D 1080p BluRay x264-VETO[rarbg]

  • Download 5x Faster
  • Download torrent
  • Direct Download
  • Rate this torrent +  |  -

Torrent info

Name:Smurfs The Lost Village 2017 3D 1080p BluRay x264-VETO[rarbg]

Total Size: 6.56 GB

Magnet: Magnet Link

Seeds: 43

Leechers: 44

Stream: Watch Full Movie @ Movie4u

Last Updated: 2017-08-21 11:47:51 (Update Now)

Torrent added: 2017-08-19 08:20:15



VPN For Torrents

Torrent Files List


RARBG.txt (Size: 6.56 GB) (Files: 4)

 RARBG.txt

0.03 KB

 smurfs.the.lost.village.2017.3d.1080p.bluray.x264-veto.jpg

5.98 KB

 smurfs.the.lost.village.2017.3d.1080p.bluray.x264-veto.mkv

6.56 GB

 smurfs.the.lost.village.2017.3d.1080p.bluray.x264-veto.nfo

11.40 KB
 

tracker

leech seeds
 

Torrent description

Video
ID : 1
Format : AVC
Format/Info : Advanced Video Codec
Format profile : [emailprotected]/* */
MultiView_Count : 2
MultiView_Layout : Side by Side (left eye first)
Format settings, CABAC : Yes
Format settings, ReFrames : 4 frames
Codec ID : V_MPEG4/ISO/AVC
Duration : 1h 29mn
Bit rate : 8 944 Kbps
Width : 1 920 pixels
Height : 1 040 pixels
Display aspect ratio : 1.85:1
Frame rate mode : Constant
Frame rate : 23.976 (23976/1000) fps
Original frame rate : 23.976 (24000/1001) fps
Color space : YUV
Chroma subsampling : 4:2:0
Bit depth : 8 bits
Scan type : Progressive
Bits/(Pixel*Frame) : 0.187
Stream size : 5.61 GiB (86%)
Default : Yes
Forced : No


Audio
ID : 2
Format : DTS
Format/Info : Digital Theater Systems
Mode : 16
Format settings, Endianness : Big
Codec ID : A_DTS
Duration : 1h 29mn
Bit rate mode : Constant
Bit rate : 1 509 Kbps
Channel(s) : 6 channels
Channel positions : Front: L C R, Side: L R, LFE
Sampling rate : 48.0 KHz
Frame rate : 93.750 fps (512 spf)
Bit depth : 16 bits
Compression mode : Lossy
Stream size : 969 MiB (14%)
Language : English
Default : Yes
Forced : No


http://imdb.com/title/tt2398241/

related torrents

Torrent name

health leech seeds Size
 


comments (0)

Main Menu

 

script data-cfasync="false" src="//d2ghscazvn398x.cloudfront.net/?cshgd=690275">