TV - Other

Formula 1 2014x03 Bahrain Race SkyF1HD 720p

  • Download 5x Faster
  • Download torrent
  • Direct Download
  • Rate this torrent +  |  -
Formula 1 2014x03 Bahrain Race SkyF1HD 720p

Download direct - no client needed


Torrent info

Name:Formula 1 2014x03 Bahrain Race SkyF1HD 720p.torrent

Magnet: Magnet Link

Seeds: 0

Leechers: 0

Available: Watch Online @ Movie4u

Total Size: 7.87 GB

Downloaded: 95

Torrent added: 2014-04-06 21:34:09

Last Updated: 0000-00-00 00:00:00 (Update Now)

Share:Bookmark and Share



Torrent Files List


01.Pre-Race.Buildup.720p.mp4 (Size: 7.87 GB) (Files: 3)

 01.Pre-Race.Buildup.720p.mp4

2.14 GB

 02.Race.Session.720p.mp4

3.87 GB

 03.Post-Race.Analysis.720p.mp4

1.86 GB
 



tracker

leech seeds
 

Torrent description

The 2014 Bahrain Grand Prix from the Bahrain International Circuit.

01.Pre-Race.Buildup.720p.mp4 [1hr25m - 2.13GB]
02.Race.Session.720p.mp4 [2h10m - 3.87GB]
03.Post-Race.Analysis.720p.mp4 [1hr15m - 1.86GB]

~~~
Video
ID : 1
Format : AVC
Format/Info : Advanced Video Codec
Format profile : High@L3.1
Format settings, CABAC : Yes
Format settings, ReFrames : 4 frames
Codec ID : avc1
Codec ID/Info : Advanced Video Coding
Duration : 1h 14mn
Bit rate mode : Variable
Bit rate : 3 255 Kbps
Width : 1 280 pixels
Height : 720 pixels
Display aspect ratio : 16:9
Frame rate mode : Constant
Frame rate : 25.000 fps
Color space : YUV
Chroma subsampling : 4:2:0
Bit depth : 8 bits
Scan type : Progressive
Bits/(Pixel*Frame) : 0.141
Stream size : 1.69 GiB (91%)
Writing library : x264 core 130 r2273 b3065e6
Encoding settings : cabac=1 / ref=1 / deblock=1:0:0 / analyse=0x3:0x113 / me=hex / subme=2 / psy=1 / psy_rd=1.00:0.00 / mixed_ref=0 / me_range=16 / chroma_me=1 / trellis=0 / 8x8dct=1 / cqm=0 / deadzone=21,11 / fast_pskip=1 / chroma_qp_offset=0 / threads=12 / lookahead_threads=4 / sliced_threads=0 / nr=0 / decimate=1 / interlaced=0 / bluray_compat=0 / constrained_intra=0 / bframes=3 / b_pyramid=2 / b_adapt=1 / b_bias=0 / direct=1 / weightb=1 / open_gop=0 / weightp=1 / keyint=250 / keyint_min=25 / scenecut=40 / intra_refresh=0 / rc_lookahead=10 / rc=crf / mbtree=1 / crf=20.0 / qcomp=0.60 / qpmin=0 / qpmax=69 / qpstep=4 / vbv_maxrate=17500 / vbv_bufsize=17500 / crf_max=0.0 / nal_hrd=none / ip_ratio=1.40 / aq=1:1.00
Encoded date : UTC 2014-04-06 19:41:26
Tagged date : UTC 2014-04-06 20:01:38
Color primaries : BT.709
Transfer characteristics : BT.709
Matrix coefficients : BT.709

Audio
ID : 2
Format : AAC
Format/Info : Advanced Audio Codec
Format profile : LC
Codec ID : 40
Duration : 1h 14mn
Bit rate mode : Variable
Bit rate : 320 Kbps
Maximum bit rate : 586 Kbps
Channel(s) : 6 channels
Channel positions : Front: L C R, Side: L R, LFE
Sampling rate : 48.0 KHz
Compression mode : Lossy
Delay relative to video : 80ms
Stream size : 170 MiB (9%)
Encoded date : UTC 2014-04-06 19:41:26
Tagged date : UTC 2014-04-06 20:01:37

related torrents

Torrent name

health leech seeds Size
 

comments (0)

Main Menu