Movies - Other

Lone Survivor

  • Download 5x Faster
  • Download torrent
  • Direct Download
  • Rate this torrent +  |  -
Lone Survivor

Download direct - no client needed


Torrent info

Name:Lone Survivor.torrent

Magnet: Magnet Link

Seeds: 0

Leechers: 0

Available: Watch Online @ Movie4u

Total Size: 2.08 GB

Downloaded: 262

Torrent added: 2014-03-15 19:34:38

Last Updated: 0000-00-00 00:00:00 (Update Now)

Share:Bookmark and Share



Torrent Files List


 

tracker

leech seeds
 

Torrent description

With: Mark Wahlberg, Taylor Kitsch and Eric Bana

De film is gebaseerd op de mislukte missie Operation Red Wings, die op 28 juni 2005 werd uitgevoerd door Navy Seal Team 10. Het doel van het team is om Taliban-leider Ahmad Shah te doden. De missie komt echter al snel in het gedrang als het team nabij het Hindu Kush gebergte in een hinderlaag van de Taliban loopt. Marcus Luttrell (Mark Wahlberg) moet alles op alles zetten om deze nachtmerrie te overleven.

Based on the failed June 28, 2005 mission Operation Red Wings. Four members of SEAL Team 10 were tasked with the mission to capture or kill notorious Taliban leader Ahmad Shahd.

http://www.imdb.com/title/tt1091191

--------------------- Dutch Friends 4ever ---------------------
---------------------------------------------------------------
- Bezoek ook eens mijn vrienden op: http://www.Film-Test.nl --
----- voor mijn Nederlandse Sync. ondertitels ---- en meer ----
------- http://www.Film-Test.nl ---- Over Films en meer -------
---------------------------------------------------------------

General:

Complete name : Lone SurvivorLone Survivor.avi
Format : AVI
Format/Info : Audio Video Interleave
File size : 2.08 GiB
Duration : 2h 1mn
Overall bit rate : 2 456 Kbps

Video:

Format : MPEG-4 Visual
Format profile : Simple@L3
Format settings, BVOP : No
Format settings, QPel : No
Format settings, GMC : No warppoints
Format settings, Matrix : Default (H.263)
Codec ID : XVID
Codec ID/Hint : XviD
Duration : 2h 1mn
Bit rate : 1 997 Kbps
Width : 720 pixels
Height : 304 pixels
Display aspect ratio : 2.35:1
Frame rate : 25.000 fps
Color space : YUV
Chroma subsampling : 4:2:0
Bit depth : 8 bits
Scan type : Progressive
Compression mode : Lossy
Bits/(Pixel*Frame) : 0.365
Stream size : 1.69 GiB (81%)
Writing library : XviD 1.1.2 (UTC 2006-11-01)

Audio:

Format : AC-3
Format/Info : Audio Coding 3
Mode extension : CM (complete main)
Format settings, Endianness : Big
Codec ID : 2000
Duration : 2h 1mn
Source duration : 2h 1mn
Bit rate mode : Constant
Bit rate : 448 Kbps
Channel(s) : 6 channels
Channel positions : Front: L C R, Side: L R, LFE
Sampling rate : 48.0 KHz
Bit depth : 16 bits
Compression mode : Lossy
Stream size : 388 MiB (18%)
Alignment : Aligned on interleaves
Interleave, duration : 32 ms (0.80 video frame)

related torrents

Torrent name

health leech seeds Size

Lone Survivor BDRip XviD-COCAIN

16681 16351 682.95 MB 0

Lone Survivor (2013)

11705 14764 328.74 MB 0
 

comments (0)

Main Menu