Movies - Other

Frozen

  • Download 5x Faster
  • Download torrent
  • Direct Download
  • Rate this torrent +  |  -
Frozen

Download direct - no client needed


Torrent info

Name:Frozen.torrent

Magnet: Magnet Link

Seeds: 0

Leechers: 0

Available: Watch Online @ Movie4u

Total Size: 1.55 GB

Downloaded: 493

Torrent added: 2014-02-27 19:34:13

Last Updated: 0000-00-00 00:00:00 (Update Now)

Alternatives:Frozen Torrents

Share:Bookmark and Share



Torrent Files List


 



tracker

leech seeds
 

Torrent description

With the voices of Kristen Bell, Josh Gad en Idina Menzel

De bergbeklimmer Kristoff en een jong meisje genaamd Anna reizen met een stel rendieren over de besneeuwde bergtoppen en gevaarlijke kliffen. Ze zijn op zoek naar Anna\'s zus Elsa, de legendarische Sneeuwkoningin, om de eeuwigdurende winter die over hun koninkrijk gevallen is te beëindigen. Op hun tocht ontmoeten ze mystieke trollen en de hilarische sneeuwman Olaf en zullen ze de natuurelementen moeten overwinnen om het koninkrijk te redden.MovieInfo

Fearless optimist Anna teams up with Kristoff in an epic journey, encountering Everest-like conditions, and a hilarious snowman named Olaf in a race to find Anna\'s sister Elsa, whose icy powers have trapped the kingdom in eternal winter.

http://www.imdb.com/title/tt2294629

--------------------- Dutch Friends 4ever ---------------------
---------------------------------------------------------------
- Bezoek ook eens mijn vrienden op: http://www.Film-Test.nl --
----- voor mijn Nederlandse Sync. ondertitels ---- en meer ----
------- http://www.Film-Test.nl ---- Over Films en meer -------
---------------------------------------------------------------

General:

Complete name : FrozenFrozen.avi
Format : AVI
Format/Info : Audio Video Interleave
File size : 1.55 GiB
Duration : 1h 42mn
Overall bit rate : 2 172 Kbps

Video:

Format : MPEG-4 Visual
Format profile : Simple@L3
Format settings, BVOP : No
Format settings, QPel : No
Format settings, GMC : No warppoints
Format settings, Matrix : Default (H.263)
Codec ID : XVID
Codec ID/Hint : XviD
Duration : 1h 42mn
Source duration : 1h 42mn
Bit rate : 1 714 Kbps
Width : 720 pixels
Height : 304 pixels
Display aspect ratio : 2.35:1
Frame rate : 23.976 fps
Color space : YUV
Chroma subsampling : 4:2:0
Bit depth : 8 bits
Scan type : Progressive
Compression mode : Lossy
Bits/(Pixel*Frame) : 0.327
Stream size : 1.22 GiB (79%)
Writing library : XviD 1.1.2 (UTC 2006-11-01)

Audio:

Format : AC-3
Format/Info : Audio Coding 3
Mode extension : CM (complete main)
Format settings, Endianness : Big
Codec ID : 2000
Duration : 1h 42mn
Bit rate mode : Constant
Bit rate : 448 Kbps
Channel(s) : 6 channels
Channel positions : Front: L C R, Side: L R, LFE
Sampling rate : 48.0 KHz
Bit depth : 16 bits
Compression mode : Lossy
Stream size : 328 MiB (21%)
Alignment : Aligned on interleaves
Interleave, duration : 32 ms (0.77 video frame)

related torrents

Torrent name

health leech seeds Size

Frozen Ghost Frozen Ghost

0 0 273.00 MB 0
 

comments (0)

Main Menu