Movies - Other

Heartless 2014 Hindi Movies PDVDRip XViD with Sample ~ ☻rDX☻

  • Download 5x Faster
  • Download torrent
  • Direct Download
  • Rate this torrent +  |  -

Torrent info

Name:Heartless 2014 Hindi Movies PDVDRip XViD with Sample ~ ☻rDX☻.torrent

Magnet: Magnet Link

Seeds: 0

Leechers: 0

Available: Watch Free Online Movie @ Movie4u

Total Size: 703.97 MB

Downloaded: 335

Torrent added: 2014-02-09 09:35:53

Last Updated: 0000-00-00 00:00:00 (Update Now)

Share:Bookmark and Share



Torrent Files List


Heartless 2014 Hindi Movies PDVDRip XViD ~ ☻rDX☻.mkv (Size: 703.97 MB) (Files: 2)

 Heartless 2014 Hindi Movies PDVDRip XViD ~ ☻rDX☻.mkv

692.58 MB

 Sample ~ Heartless 2014 Hindi Movies PDVDRip XViD ~ ☻rDX☻.mkv

11.39 MB
 

Announce URL:

Torrent description

Heartless 2014 Hindi Movies PDVDRip XViD with Sample ~ ☻rDX☻ preview 3

Heartless 2014 Hindi Movies PDVDRip XViD with Sample ~ rDX

Please check SCREEN SHOTS first :

http://moviesreview.co.nr/2014/2/Heartlesspd/1.html
http://moviesreview.co.nr/2014/2/Heartlesspd/2.html
http://moviesreview.co.nr/2014/2/Heartlesspd/3.html
http://moviesreview.co.nr/2014/2/Heartlesspd/4.html
http://moviesreview.co.nr/2014/2/Heartlesspd/5.html
http://moviesreview.co.nr/2014/2/Heartlesspd/6.html
http://moviesreview.co.nr/2014/2/Heartlesspd/7.html
http://moviesreview.co.nr/2014/2/Heartlesspd/8.html
http://moviesreview.co.nr/2014/2/Heartlesspd/9.html
http://moviesreview.co.nr/2014/2/Heartlesspd/10.html

All rDX torrents are Seeding From the 1Gbps Seedbox 24X7

Heartless 2014 Hindi Movies PDVDRip XViD with Sample ~ ☻rDX☻ preview 0

Heartless 2014 Hindi Movies PDVDRip XViD with Sample ~ ☻rDX☻ preview 1

Heartless 2014 Hindi Movies PDVDRip XViD with Sample ~ ☻rDX☻ preview 2

Format : Matroska
Format version : Version 4 / Version 2
File size : 693 MiB
Duration : 2h 6mn
Overall bit rate : 762 Kbps
Movie name : Heartless 2014 Hindi Movies PDVDRip XViD ~ rDX ~

Video
ID : 1
Format : MPEG-4 Visual
Format profile : Advanced Simple@L5
Format settings, BVOP : Yes
Format settings, QPel : No
Format settings, GMC : No warppoints
Format settings, Matrix : Default (H.263)
Codec ID : V_MS/VFW/FOURCC / XVID
Codec ID/Hint : XviD
Duration : 2h 6mn
Bit rate : 667 Kbps
Width : 640 pixels
Height : 272 pixels
Display aspect ratio : 2.35:1
Frame rate mode : Constant
Frame rate : 23.976 fps
Color space : YUV
Chroma subsampling : 4:2:0
Bit depth : 8 bits
Scan type : Progressive
Compression mode : Lossy
Bits/(Pixel*Frame) : 0.160
Stream size : 606 MiB (88%)
Title : ~ rDX ~
Writing library : XviD 1.2.1 (UTC 2008-12-04)
Default : Yes
Forced : No

Audio
ID : 2
Format : MPEG Audio
Format version : Version 1
Format profile : Layer 3
Mode : Joint stereo
Codec ID : A_MPEG/L3
Codec ID/Hint : MP3
Duration : 2h 6mn
Bit rate mode : Constant
Bit rate : 80.0 Kbps
Channel(s) : 2 channels
Sampling rate : 32.0 KHz
Compression mode : Lossy
Stream size : 72.7 MiB (10%)
Title : ~ rDX ~
Writing library : LAME3.99r
Encoding settings : -m j -V 4 -q 2 -lowpass 13.5 -b 80
Default : Yes
Forced : No

related torrents

Torrent name

health leech seeds Size
 

comments (0)

Main Menu