Other

X-Art - 2014-01-18 - Season Of Love - Caprice mp4

  • Download 5x Faster
  • Download torrent
  • Direct Download
  • Rate this torrent +  |  -
X-Art - 2014-01-18 - Season Of Love - Caprice mp4

Download direct - no client needed


Torrent info

Name:X-Art - 2014-01-18 - Season Of Love - Caprice mp4.torrent

Magnet: Magnet Link

Seeds: 0

Leechers: 0

Available: Watch Free Online Movie @ Movie4u

Total Size: 209.42 MB

Downloaded: 49

Torrent added: 2014-01-18 12:34:59

Last Updated: 0000-00-00 00:00:00 (Update Now)

Share:Bookmark and Share



Torrent Files List


X-Art - 2014-01-18 - Season Of Love - Caprice.mp4 (Size: 209.42 MB) (Files: 1)

 X-Art - 2014-01-18 - Season Of Love - Caprice.mp4

209.42 MB
 

Announce URL:

Torrent description

General

Complete name : X-Art - 2014-01-18 - Season Of Love - Caprice.mp4
Format : MPEG-4
Format profile : Base Media / Version 2
Codec ID : mp42
File size : 209 MiB
Duration : 15mn 48s
Overall bit rate mode : Variable
Overall bit rate : 1 852 Kbps
Encoded date : UTC 2014-01-18 16:10:51
Tagged date : UTC 2014-01-18 16:44:10
Writing application : HandBrake 0.9.9 2013052900

Video
ID : 1
Format : AVC
Format/Info : Advanced Video Codec
Format profile : High@L4.1
Format settings, CABAC : Yes
Format settings, ReFrames : 4 frames
Codec ID : avc1
Codec ID/Info : Advanced Video Coding
Duration : 15mn 48s
Bit rate mode : Variable
Bit rate : 1 690 Kbps
Width : 960 pixels
Height : 410 pixels
Display aspect ratio : 2.35:1
Frame rate mode : Constant
Frame rate : 25.000 fps
Color space : YUV
Chroma subsampling : 4:2:0
Bit depth : 8 bits
Scan type : Progressive
Bits/(Pixel*Frame) : 0.172
Stream size : 191 MiB (91%)
Writing library : x264 core 130 r2273 b3065e6
Encoding settings : cabac=1 / ref=3 / deblock=1:0:0 / analyse=0x3:0x113 / me=hex / subme=7 / psy=1 / psy_rd=1.00:0.00 / mixed_ref=1 / me_range=16 / chroma_me=1 / trellis=1 / 8x8dct=1 / cqm=0 / deadzone=21,11 / fast_pskip=1 / chroma_qp_offset=-2 / threads=3 / lookahead_threads=1 / sliced_threads=0 / nr=0 / decimate=1 / interlaced=0 / bluray_compat=0 / constrained_intra=0 / bframes=3 / b_pyramid=2 / b_adapt=1 / b_bias=0 / direct=1 / weightb=1 / open_gop=0 / weightp=2 / keyint=250 / keyint_min=25 / scenecut=40 / intra_refresh=0 / rc_lookahead=40 / rc=crf / mbtree=1 / crf=20.0 / qcomp=0.60 / qpmin=0 / qpmax=69 / qpstep=4 / vbv_maxrate=62500 / vbv_bufsize=78125 / crf_max=0.0 / nal_hrd=none / ip_ratio=1.40 / aq=1:1.00
Encoded date : UTC 2014-01-18 16:10:51
Tagged date : UTC 2014-01-18 16:44:10
Color primaries : BT.709
Transfer characteristics : BT.709
Matrix coefficients : BT.709

Audio
ID : 2
Format : AAC
Format/Info : Advanced Audio Codec
Format profile : LC
Codec ID : 40
Duration : 15mn 48s
Bit rate mode : Variable
Bit rate : 158 Kbps
Maximum bit rate : 177 Kbps
Channel(s) : 2 channels
Channel positions : Front: L R
Sampling rate : 48.0 KHz
Compression mode : Lossy
Delay relative to video : 80ms
Stream size : 17.8 MiB (9%)
Language : English
Encoded date : UTC 2014-01-18 16:10:51
Tagged date : UTC 2014-01-18 16:44:09

related torrents

Torrent name

health leech seeds Size
 

comments (0)

Main Menu