Music Videos

Hasee Toh Phasee (2014) - Zehnaseeb Official Video Song HD 1080p -AshishRocks- DAKU RG } MP4

  • Download 5x Faster
  • Download torrent
  • Direct Download
  • Rate this torrent +  |  -

Torrent info

Name:Hasee Toh Phasee (2014) - Zehnaseeb Official Video Song HD 1080p -AshishRocks- DAKU RG } MP4.torrent

Magnet: Magnet Link

Seeds: 0

Leechers: 0

Available: Watch Online @ Movie4u

Total Size: 52.03 MB

Downloaded: 239

Torrent added: 2014-01-08 07:35:32

Last Updated: 0000-00-00 00:00:00 (Update Now)

Share:Bookmark and Share



Torrent Files List


 



Announce URL:

Torrent description

General

Complete name : Hasee Toh Phasee (2014) - Zehnaseeb Official Video Song HD 1080p -AshishRocks- { DAKU RG }
Format : MPEG-4
Format profile : Base Media
Codec ID : isom
File size : 52.0 MiB
Duration : 2mn 23s
Overall bit rate mode : Variable
Overall bit rate : 3 034 Kbps
Encoded date : UTC 2013-12-15 09:05:05
Tagged date : UTC 2013-12-15 09:05:05

Video

ID : 1
Format : AVC
Format/Info : Advanced Video Codec
Format profile : High@L4.0
Format settings, CABAC : Yes
Format settings, ReFrames : 2 frames
Codec ID : avc1
Codec ID/Info : Advanced Video Coding
Duration : 2mn 23s
Bit rate : 2 908 Kbps
Width : 1 920 pixels
Height : 1 080 pixels
Display aspect ratio : 16:9
Frame rate mode : Constant
Frame rate : 25.000 fps
Color space : YUV
Chroma subsampling : 4:2:0
Bit depth : 8 bits
Scan type : Progressive
Bits/(Pixel*Frame) : 0.056
Stream size : 49.8 MiB (96%)
Encoded date : UTC 2013-12-15 09:05:05
Tagged date : UTC 2013-12-15 09:05:05

Audio

ID : 2
Format : AAC
Format/Info : Advanced Audio Codec
Format profile : LC
Codec ID : 40
Duration : 2mn 23s
Bit rate mode : Variable
Bit rate : 126 Kbps
Channel(s) : 2 channels
Channel positions : Front: L R
Sampling rate : 44.1 KHz
Compression mode : Lossy
Stream size : 2.15 MiB (4%)
Encoded date : UTC 2013-12-15 09:04:47
Tagged date : UTC 2013-12-15 09:04:47

related torrents

Torrent name

health leech seeds Size
 

comments (0)

Main Menu