Movies - Other

Captain Phillips (2013) DVDRip XviD-MAXSPEED

  • Download 5x Faster
  • Download torrent
  • Direct Download
  • Rate this torrent +  |  -
Captain Phillips (2013) DVDRip XviD-MAXSPEED

Download direct - no client needed


Torrent info

Name:Captain Phillips (2013) DVDRip XviD-MAXSPEED.torrent

Magnet: Magnet Link

Seeds: 0

Leechers: 0

Available: Watch Free Online Movie @ Movie4u

Total Size: 1.36 GB

Downloaded: 5614

Torrent added: 2014-01-07 06:34:50

Last Updated: 0000-00-00 00:00:00 (Update Now)

Share:Bookmark and Share



Torrent Files List


 

Announce URL:

Torrent description

Captain Phillips (2013) DVDRip XviD-MAXSPEED preview 0

Screens:

Captain Phillips (2013) DVDRip XviD-MAXSPEED preview 1
Captain Phillips (2013) DVDRip XviD-MAXSPEED preview 2
Captain Phillips (2013) DVDRip XviD-MAXSPEED preview 3
Captain Phillips (2013) DVDRip XviD-MAXSPEED preview 4

ScreenCaps:

Captain Phillips (2013) DVDRip XviD-MAXSPEED preview 5

Captain Phillips (2013) DVDRip XviD-MAX
Format : AVI
Format/Info : Audio Video Interleave
Format profile : OpenDML
Format settings : rec
File size : 1.36 GiB
Duration : 2h 14mn
Overall bit rate : 1 448 Kbps
Writing application : VirtualDubMod 1.5.10.2 (build 2542/release)
Writing library : VirtualDubMod build 2542/release
Original source form : MAX TORRENTZ
Copyright : SIGISMUNT

Video
ID : 0
Format : MPEG-4 Visual
Format profile : Advanced Simple@L5
Format settings, BVOP : 2
Format settings, QPel : No
Format settings, GMC : No warppoints
Format settings, Matrix : Custom
Codec ID : XVID
Codec ID/Hint : XviD
Duration : 2h 14mn
Bit rate : 1 187 Kbps
Width : 720 pixels
Height : 304 pixels
Display aspect ratio : 2.35:1
Frame rate : 23.976 fps
Color space : YUV
Chroma subsampling : 4:2:0
Bit depth : 8 bits
Scan type : Progressive
Compression mode : Lossy
Bits/(Pixel*Frame) : 0.226
Stream size : 1.11 GiB (82%)
Writing library : XviD 1.2.1 (UTC 2008-12-04)

Audio
ID : 1
Format : AC-3
Format/Info : Audio Coding 3
Mode extension : CM (complete main)
Format settings, Endianness : Big
Codec ID : 2000
Duration : 2h 14mn
Bit rate mode : Constant
Bit rate : 256 Kbps
Channel(s) : 6 channels
Channel positions : Front: L C R, Side: L R, LFE
Sampling rate : 48.0 KHz
Bit depth : 16 bits
Compression mode : Lossy
Stream size : 245 MiB (18%)
Alignment : Aligned on interleaves
Interleave, duration : 64 ms (1.53 video frames)
Interleave, preload duration : 192 ms

Source: DVD-full and foreign parts only english subfiles included
(perfect a/v/sync quality,sample included)
This torrent is not seedbox supported,please seed it to the MAX

Note: If you have something to offer as early releases,seedboxes,
contact us on http://torentz.3xforum.ro or http://torentz.tk

Captain Phillips (2013) DVDRip XviD-MAX Torrent Free Download

How To Get Your MAXSPEED (uTorrent)

Torrent Client - Preferences - Bandwidth - Number of connections - Set aprox. 500 for each
Torrent Client - Preferences - BiTorrent - Protocol Encryption - Forced
Bandwidth Allocation - High (Set download/upload limit - Unlimited)
Stop Other Active Torrents - Start downloading and wait for connections.
Enjoy and Seed for at least 1:1 ratio. Dont forget to say thanks/leave reviews.
If screens/Caps image host is dead google search release namescreens or sample.
Greets to all actual/future p2p/scene QUALITY groups and affiliate websites.
Dont trust IMDb robot or bad ratings,always watch some trailers first.
Ignore stupid comments/fake/mislabeled/no-DVDrips/CAM/TS/RAR uploads.
Please spread this release/torrent to your friends/forums/etc.
If you need translation subs visit some subtitles sites.
Report if you see online streaming or other spam links.
Recommended movie player VLC PLAYER.

related torrents

Torrent name

health leech seeds Size
 

comments (0)

Main Menu