Warning: mysql_connect(): Headers and client library minor version mismatch. Headers:50615 Library:50534 in /home/torrentd/public_html/include/core.php on line 1206
THOR THE DARK WORLD 2013 CAMRiP XViD DUAL MP3 MURDER Torrent Downloads - download free torrents!

Movies - Other

THOR THE DARK WORLD 2013 CAMRiP XViD DUAL MP3 MURDER

  • Download 5x Faster
  • Download torrent
  • Direct Download
  • Rate this torrent +  |  -
THOR THE DARK WORLD 2013 CAMRiP XViD DUAL MP3 MURDER

Download direct - no client needed


Torrent info

Name:THOR THE DARK WORLD 2013 CAMRiP XViD DUAL MP3 MURDER.torrent

Magnet: Magnet Link

Seeds: 0

Leechers: 0

Available: Watch Free Online Movie @ Movie4u

Total Size: 2.21 GB

Downloaded: 650

Torrent added: 2013-11-21 15:35:02

Last Updated: 2014-02-19 09:23:40 (Update Now)

Share:Bookmark and Share



Torrent Files List


 

Announce URL:

Torrent description

General
Complete name : THOR THE DARK WORLD 2013 CAMRiP XViD DUAL MP3 MURDER.mkv
Format : Matroska
Format version : Version 4 / Version 2
File size : 2.20 GiB
Duration : 1h 46mn
Overall bit rate : 2 965 Kbps
Encoded date : UTC 2013-11-20 00:13:32
Writing application : mkvmerge v6.3.0 (You cant stop me!) built on Jun 28 2013 20:09:41
Writing library : libebml v1.3.0 + libmatroska v1.4.0

Video
ID : 1
Format : MPEG-4 Visual
Format profile : Advanced Simple@L5
Format settings, BVOP : Yes
Format settings, QPel : No
Format settings, GMC : No warppoints
Format settings, Matrix : Default (MPEG)
Codec ID : V_MS/VFW/FOURCC / XVID
Codec ID/Hint : XviD
Duration : 1h 46mn
Bit rate : 2 522 Kbps
Width : 720 pixels
Height : 272 pixels
Display aspect ratio : 2.647
Frame rate mode : Constant
Frame rate : 25.000 fps
Color space : YUV
Chroma subsampling : 4:2:0
Bit depth : 8 bits
Scan type : Progressive
Compression mode : Lossy
Bits/(Pixel*Frame) : 0.515
Stream size : 1.87 GiB (85%)
Title : TELESYNC...
Writing library : XviD 64
Language : English
Default : Yes
Forced : No

Audio #1 : ENGLISH
ID : 2
Format : MPEG Audio
Format version : Version 1
Format profile : Layer 3
Mode : Dual mono
Codec ID : A_MPEG/L3
Codec ID/Hint : MP3
Duration : 1h 46mn
Bit rate mode : Constant
Bit rate : 192 Kbps
Channel count : 2 channels
Sampling rate : 48.0 KHz
Compression mode : Lossy
Stream size : 146 MiB (6%)
Title : ENGLISH..FLITERD..CAM...AUDIO..
Writing library : LAME3.93
Language : English
Default : Yes
Forced : No

Audio #2 : RUSSIAN
ID : 3
Format : MPEG Audio
Format version : Version 1
Format profile : Layer 3
Mode : Joint stereo
Mode extension : MS Stereo
Codec ID : A_MPEG/L3
Codec ID/Hint : MP3
Duration : 1h 46mn
Bit rate mode : Constant
Bit rate : 192 Kbps
Channel count : 2 channels
Sampling rate : 44.1 KHz
Compression mode : Lossy
Stream size : 146 MiB (6%)
Title : RUSSIAN...DUB...
Language : Russian
Default : No
Forced : No

THOR THE DARK WORLD 2013 CAMRiP XViD DUAL MP3 MURDER preview 0
THOR THE DARK WORLD 2013 CAMRiP XViD DUAL MP3 MURDER preview 1
THOR THE DARK WORLD 2013 CAMRiP XViD DUAL MP3 MURDER preview 2
THOR THE DARK WORLD 2013 CAMRiP XViD DUAL MP3 MURDER preview 3
THOR THE DARK WORLD 2013 CAMRiP XViD DUAL MP3 MURDER preview 4
THOR THE DARK WORLD 2013 CAMRiP XViD DUAL MP3 MURDER preview 5

related torrents

Torrent name

health leech seeds Size
 

comments (0)

Main Menu